1 сезон

1 сезон

iTunes

1

КиноПоиск HD

Кинопоиск HD

iTunes

13

1 сезон

RePack

30

Новинка

ВАЖНО

ИГРА 18+

pack

RePack

MK11
pack

Легкие деньги

RePack

jed

RePack

fifa19

RePack

RDR2

RePack

NEED FOR SPEED™ PAYBACK

4 сезон

9 сезон

Бесстыжие 9 сезон

Все сериалы

все сериалы на PB.wtf

RePack

FAR CRY 5
  
Magnet ссылка

Отклонение / The Swerve (Дин Капсалис) [2019 г., драма, WEB-DL 720p] [AVO] [BadBajo] - ExKinoRay piratbit.pw

Отклонение через торрент piratbit.pw

Раздают: 2 [ 0 KB/s ]
Размер: 2.27 GB | Добавлен: 6 мес. назад | Торрент скачан:18 раз
Скачать  

29-09-2020 05:08 Отклонение Скачать торрент  

Название: Отклонение
Оригинальное название: The Swerve
Год выпуска: 2019
Жанр: Драма
Режиссер: Дин Капсалис
В ролях: Азура Скай, Брайс Пинкэм, Эшли Белл, Зак Рэнд, Дебора Хедуолл, Дэн Дэйли, Дэйсон Гаптон, Линдси Джэксон

О фильме: У Холли, кажется, есть все: двое детей, хороший дом, работа учителя и муж-карьерист. Но оказывается, что в её мире всё не так. Бессонница. И странные сны после лекарств. А их можно назвать снами? И еще мышь, которая появляется в ее доме. Из-за этого всего Холли теряет контроль над собой.

rating

Страна: США
Студия: Spark Chamber
Продолжительность: 01:37:21
Перевод: Авторский - А.Важенин [BadBajo]

БЕЗ КАКОЙ-ЛИБО РЕКЛАМЫ!

Формат: MKV
Качество: WEB-DL 720p
Видео: MPEG-4 AVC, 1248x520 (2.40:1), 2438 kbps, 23.976 fps, 0.157 bit/pixel
Аудио #01: 48 kHz, AC3, 5.1, 448 Kbps | AVO | RUS |
Аудио #02: 48 kHz, E-AC3, 5.1, 640 Kbps | Оригинал | ENG |
Субтитры: Английские
General
Unique ID : 216842310257399485233895427209023560271 (0xA3224F528ED161E3A207953FE2359A4F)
Complete name : F:\The.Swerve.2019.BadBajo.AMZN.WEB-DL.720p.ExKinoRay.mkv
Format : Matroska
Format version : Version 2
File size : 2.27 GiB
Duration : 1 h 35 min
Overall bit rate : 3 402 kb/s
Movie name : The Swerve 2019 from ExKinoRay
Encoded date : UTC 2020-09-29 04:47:31
Writing application : mkvmerge v5.6.0 ('Kenya Kane') built on May 27 2012 16:44:04
Writing library : libebml v1.2.3 + libmatroska v1.3.0

Video
ID : 1
Format : AVC
Format/Info : Advanced Video Codec
Format profile : High@L3.1
Format settings, CABAC : Yes
Format settings, ReFrames : 4 frames
Codec ID : V_MPEG4/ISO/AVC
Duration : 1 h 35 min
Bit rate mode : Constant
Bit rate : 2 438 kb/s
Nominal bit rate : 6 000 kb/s
Width : 1 248 pixels
Height : 520 pixels
Display aspect ratio : 2.40:1
Frame rate mode : Constant
Frame rate : 23.976 (24000/1001) FPS
Color space : YUV
Chroma subsampling : 4:2:0
Bit depth : 8 bits
Scan type : Progressive
Bits/(Pixel*Frame) : 0.157
Stream size : 1.62 GiB (72%)
Title : TEPES
Default : Yes
Forced : No
Color range : Limited
Color primaries : BT.709
Transfer characteristics : BT.709
Matrix coefficients : BT.709

Audio #1
ID : 2
Format : AC-3
Format/Info : Audio Coding 3
Mode extension : CM (complete main)
Format settings, Endianness : Big
Codec ID : A_AC3
Duration : 1 h 35 min
Bit rate mode : Constant
Bit rate : 448 kb/s
Channel(s) : 6 channels
Channel positions : Front: L C R, Side: L R, LFE
Sampling rate : 48.0 kHz
Frame rate : 31.250 FPS (1536 spf)
Compression mode : Lossy
Stream size : 306 MiB (13%)
Title : AVO (BadBajo)
Language : Russian
Default : Yes
Forced : No

Audio #2
ID : 3
Format : AC-3
Format/Info : Audio Coding 3
Mode extension : CM (complete main)
Format settings, Endianness : Big
Codec ID : A_AC3
Duration : 1 h 35 min
Bit rate mode : Constant
Bit rate : 448 kb/s
Channel(s) : 6 channels
Channel positions : Front: L C R, Side: L R, LFE
Sampling rate : 48.0 kHz
Frame rate : 31.250 FPS (1536 spf)
Compression mode : Lossy
Stream size : 306 MiB (13%)
Language : English
Default : No
Forced : No

Text #1
ID : 4
Format : UTF-8
Codec ID : S_TEXT/UTF8
Codec ID/Info : UTF-8 Plain Text
Title : Full
Language : English
Default : No
Forced : No

Text #2
ID : 5
Format : UTF-8
Codec ID : S_TEXT/UTF8
Codec ID/Info : UTF-8 Plain Text
Title : SDH
Language : English
Default : No
Forced : No


Релиз от:

Автор релиза: piratbit.pw



Скачать Отклонение через торрент https://d.radikal.ru/d15/2009/e0/c662acae2728.jpg Скачать фильм Отклонение через торрент бесплантно в хорошем качестве О фильме: У Холли, кажется, есть все: двое детей, хороший дом, работа учителя и муж-карьерист. Но оказывается, что в её мире всё не так. ... 5 10 1
Info! Золотая раздача, скачанное не засчитывается.
Торрент: Зарегистрирован [2020-09-29 05:08] · скачан: 18 раз
Статус: √ проверено
Размер: 2.27 GB
Как cкачать? Как скачать Отклонение через торрент | UTorrent

28-11-2019 20:33  

Отключить всю рекламу на сайте

    Дорогой пользователь! Огромная просьба, поблагодарите релизера, оцените раздачу и оставьте свои комментарий, если Вы скачали Отклонение через торрент бесплатно! Внесите свою лепту в развитие PiratBit!
    Комментировать посты могут только пользователи прошедшие не сложную регистрацию
    Показать сообщения:    

    Отклонение через торрент
    Скачать бесплатно Отклонение
    Отклонение скачать торрент
    Отклонение смотреть онлайн
    Cкачать фильм Отклонение бесплатно
    Отклонение скачать торрент в хорошем качестве
    Отклонение смотреть онлайн бесплатно в хорошем качестве


    Вы не можете начинать темы
    Вы не можете отвечать на сообщения
    Вы не можете редактировать свои сообщения
    Вы не можете удалять свои сообщения
    Вы не можете голосовать в опросах
    Вы не можете прикреплять файлы к сообщениям
    Вы можете скачивать файлы