Ссылка на приватное зеркало нашего сайта всего за 1$. Внимание количество ограничено!!!

2 сезон

iTunes

1 сезон

1

2 сезон

2 сезон

iTunes

1 сезон

RePack

30

Новинка

ВАЖНО

ИГРА 18+

pack

RePack

MK11
pack

Забери бонус

RePack

jed

!!Акция!!

Alien_Rage

RePack

fifa19

RePack

Assassins Creed: Odyssey

RePack

NEED FOR SPEED™ PAYBACK

4 сезон

9 сезон

Бесстыжие 9 сезон

Все сериалы

все сериалы на PB.wtf

RePack

FAR CRY 5
  

Аутбэк / Outback (Майк Грин) [2019 г., Триллер, драма, WEB-DLRip-AVC] [MVO] [Синема УС] от MediaBit piratbit.pw

Аутбэк через торрент piratbit.pw

Размер: 1.45 GB | Добавлен: 2 мес. 8 д. назад | Торрент скачан:203 раза
Скачать  

26-09-2020 20:34 Аутбэк Скачать торрент  


Аутбэк / Outback
Информация о фильме:
Название: Аутбэк
Оригинальное название: Outback
Год выхода: 2019
Жанр: Триллер, драма
Режиссер: Майк Грин

В ролях: Ким Крамп, Брендан Донохью, Лорен Лофберг, Тейлор Визе, Джим Винтон Портер

Описание: Фильм основан на реальных событиях. Влюбленная парочка из Америки, Лиза и Уэйд, отправились в жаркую Австралию. Во время полета парень делает девушке предложение, но та отказывает, аргументировав, что пока не готова. Прибыв на место, они сели в машину и поехали осматривать дикую природу Австралии, но оказавшись посреди глуши, поняли, что так просто им оттуда не выбраться.

rating

Страна: Австралия
Студия: Outback The Movie, Story Posse
Продолжительность: 01:25:57
Перевод: Любительский (многоголосый, закадровый) - Синема УС



Информация о файле:
Кодек: AVC
Формат: MKV
Качество: WEB-DLRip-AVC
Видео: MPEG-4 AVC, 1024x430 (2.40:1), 23.976 fps, 2 219 kb/s, 0.210
Аудио RU: AC3, 2 ch, 48 kHz, 192 kbps
Навигация по главам: Есть

General
Unique ID : 132637801147183654401830973993541459612 (0x63C91C7E12660D55F7486C4546045E9C)
Complete name : D:uTorrentРипы_от_wolf1245_MediaBitOutback (2019) from wolf1245 & MediaBit.mkv
Format : Matroska
Format version : Version 4
File size : 1.45 GiB
Duration : 1 h 25 min
Overall bit rate : 2 412 kb/s
Movie name : Аутбэк / Outback (2019) from wolf1245 & MediaBit
Encoded date : UTC 2020-09-26 20:06:18
Writing application : mkvmerge v50.0.0 ('Awakenings') 64-bit
Writing library : libebml v1.4.0 + libmatroska v1.6.2

Video
ID : 1
Format : AVC
Format/Info : Advanced Video Codec
Format profile : High@L4.1
Format settings : CABAC / 12 Ref Frames
Format settings, CABAC : Yes
Format settings, Reference frames : 12 frames
Codec ID : V_MPEG4/ISO/AVC
Duration : 1 h 25 min
Bit rate : 2 219 kb/s
Width : 1 024 pixels
Height : 430 pixels
Display aspect ratio : 2.40:1
Frame rate mode : Constant
Frame rate : 23.976 (24000/1001) FPS
Color space : YUV
Chroma subsampling : 4:2:0
Bit depth : 8 bits
Scan type : Progressive
Bits/(Pixel*Frame) : 0.210
Stream size : 1.33 GiB (92%)
Title : wolf1245 & MediaBit
Writing library : x264 core 157 r2958 57baac4
Encoding settings : cabac=1 / ref=12 / deblock=1:-3:-3 / analyse=0x3:0x133 / me=umh / subme=11 / psy=1 / psy_rd=1.02:0.06 / mixed_ref=1 / me_range=48 / chroma_me=1 / trellis=2 / 8x8dct=1 / cqm=0 / deadzone=21,11 / fast_pskip=0 / chroma_qp_offset=-3 / threads=10 / lookahead_threads=2 / sliced_threads=0 / nr=0 / decimate=0 / interlaced=0 / bluray_compat=0 / constrained_intra=0 / bframes=12 / b_pyramid=2 / b_adapt=2 / b_bias=0 / direct=3 / weightb=1 / open_gop=0 / weightp=2 / keyint=240 / keyint_min=24 / scenecut=40 / intra_refresh=0 / rc_lookahead=55 / rc=2pass / mbtree=0 / bitrate=2219 / ratetol=1.0 / qcomp=0.60 / qpmin=0 / qpmax=69 / qpstep=4 / cplxblur=20.0 / qblur=0.5 / vbv_maxrate=50000 / vbv_bufsize=62500 / nal_hrd=none / filler=0 / ip_ratio=1.40 / pb_ratio=1.30 / aq=2:0.80
Language : English
Default : Yes
Forced : No
Color range : Limited
Color primaries : BT.709
Transfer characteristics : BT.709
Matrix coefficients : BT.709

Audio
ID : 2
Format : AC-3
Format/Info : Audio Coding 3
Commercial name : Dolby Digital
Codec ID : A_AC3
Duration : 1 h 25 min
Bit rate mode : Constant
Bit rate : 192 kb/s
Channel(s) : 2 channels
Channel layout : L R
Sampling rate : 48.0 kHz
Frame rate : 31.250 FPS (1536 SPF)
Compression mode : Lossy
Stream size : 118 MiB (8%)
Title : MVO [Синема УС] MediaBit
Language : Russian
Service kind : Complete Main
Default : Yes
Forced : No

Menu
00:00:00.000 : :1
00:00:59.000 : :2
00:10:53.000 : :3
00:19:56.000 : :4
00:28:30.000 : :5
00:37:51.000 : :6
00:46:00.000 : :7
00:53:58.000 : :8
01:01:06.000 : :9
01:12:11.000 : :10
01:21:56.000 : :11
Релиз от: & &
piratbit.pw



Скачать Аутбэк через торрент https://d.radikal.ru/d07/2009/88/99bd451281ac.jpg Скачать фильм Аутбэк через торрент бесплантно в хорошем качестве Описание: Фильм основан на реальных событиях. Влюбленная парочка из Америки, Лиза и Уэйд, отправились в жаркую Австралию. Во время полета ... 10 10 10
Торрент: Зарегистрирован [2020-09-26 20:34] · скачан: 203 раз
Статус: √ проверено
Размер: 1.45 GB
Как cкачать? Как скачать Аутбэк через торрент | qTorrent

28-11-2019 20:33  

Отключить всю рекламу на сайте

    Дорогой пользователь! Огромная просьба, поблагодарите релизера, оцените раздачу и оставьте свои комментарий, если Вы скачали Аутбэк через торрент бесплатно! Внесите свою лепту в развитие PiratBit!
    Комментировать посты могут только пользователи прошедшие не сложную регистрацию
    Показать сообщения:    

    Аутбэк через торрент
    Скачать бесплатно Аутбэк
    Аутбэк скачать торрент
    Аутбэк смотреть онлайн
    Cкачать фильм Аутбэк бесплатно
    Аутбэк скачать торрент в хорошем качестве
    Аутбэк смотреть онлайн бесплатно в хорошем качестве


    Вы не можете начинать темы
    Вы не можете отвечать на сообщения
    Вы не можете редактировать свои сообщения
    Вы не можете удалять свои сообщения
    Вы не можете голосовать в опросах
    Вы не можете прикреплять файлы к сообщениям
    Вы можете скачивать файлы