Ссылка на приватное зеркало нашего сайта всего за 1$. Внимание количество ограничено!!!

2 сезон

iTunes

1 сезон

1

2 сезон

2 сезон

iTunes

1 сезон

RePack

30

Новинка

ВАЖНО

ИГРА 18+

pack

RePack

MK11
pack

Забери бонус

RePack

jed

!!Акция!!

Alien_Rage

RePack

fifa19

RePack

Assassins Creed: Odyssey

RePack

NEED FOR SPEED™ PAYBACK

4 сезон

9 сезон

Бесстыжие 9 сезон

Все сериалы

все сериалы на PB.wtf

RePack

FAR CRY 5
  

Все оттенки Токио / Lost Girls and Love Hotels (Уильям Олссон) [2020, Триллер, драма, WEB-DLRip-AVC] [MVO] [@MUZOBOZ@] от MediaBit piratbit.pw

Все оттенки Токио через торрент piratbit.pw

Раздают: 5 [ 553 KB/s ] Качают: 1 [ 0 KB/s ]
Размер: 1.52 GB | Добавлен: 1 мес. 28 д. назад | Торрент скачан:253 раза
Скачать  

26-09-2020 07:33 Все оттенки Токио Скачать торрент  


Все оттенки Токио / Lost Girls and Love Hotels
Информация о фильме:
Название: Все оттенки Токио
Оригинальное название: Lost Girls and Love Hotels
Год выхода: 2020
Жанр: Триллер, драма
Режиссер: Уильям Олссон
В ролях: Александра Даддарио, Такэхиро Хира, Кэрис ван Хаутен, Даша Тэраниси, Марико Цуцуи, Анастасия Насу, Эндрю Ротни, Элизабет Ларена, Асука Куросава, Кейт Кастонгуэй

Описание: Пытаясь бежать от прошлого, Маргарет переезжает в Японию. Днем она преподает английский, а ночью ищет впечатлений в экзотической жизни Токио с его шумными барами, опасными связями и отелями любви. Но однажды в городе пропадает очень похожая на нее девушка, а саму Маргарет затягивает безумный роман с загадочным красавцем-якудза, который втягивает ее в мир запретных наслаждений.

rating

Страна: США, Япония
Студия: Blackbird, Wandering Trail Pictures
Продолжительность: 01:37:11
Перевод: Любительский (многоголосый, закадровый) - @MUZOBOZ@



Информация о файле:
Кодек: AVC
Формат: MKV
Качество: WEB-DLRip-AVC
Видео: MPEG-4 AVC, 1024x552 (1.85:1), 23.976 fps, 2 049 kb/s, 0.151
Аудио RU: AC3, 2 ch, 48 kHz, 192 kbps

x264 info: frame I:774 Avg QP:13.73 size: 70933
x264 info: frame P:27556 Avg QP:16.81 size: 23957
x264 info: frame B:111481 Avg QP:18.60 size: 6979
x264 info: consecutive B-frames: 1.1% 2.0% 4.3% 18.4% 16.2% 40.6% 7.3% 5.6% 1.6% 0.7% 0.6% 0.6% 1.2%
==========================================================
General
Unique ID : 176204118118397105510487325993581554492 (0x848FADC1F5F5C28B7DEE0DFFA7162B3C)
Complete name : D:uTorrentРипы_от_wolf1245_MediaBitLost Girls and Love Hotels (2020) wolf1245 & MediaBit.mkv
Format : Matroska
Format version : Version 4
File size : 1.52 GiB
Duration : 1 h 37 min
Overall bit rate : 2 242 kb/s
Movie name : Lost Girls and Love Hotels (2020) wolf1245 & MediaBit
Encoded date : UTC 2020-09-26 07:16:51
Writing application : mkvmerge v50.0.0 ('Awakenings') 64-bit
Writing library : libebml v1.4.0 + libmatroska v1.6.2
Video
ID : 1
Format : AVC
Format/Info : Advanced Video Codec
Format profile : High@L4.1
Format settings : CABAC / 12 Ref Frames
Format settings, CABAC : Yes
Format settings, Reference frames : 12 frames
Codec ID : V_MPEG4/ISO/AVC
Duration : 1 h 37 min
Bit rate : 2 049 kb/s
Width : 1 024 pixels
Height : 552 pixels
Display aspect ratio : 1.85:1
Frame rate mode : Constant
Frame rate : 23.976 (24000/1001) FPS
Color space : YUV
Chroma subsampling : 4:2:0
Bit depth : 8 bits
Scan type : Progressive
Bits/(Pixel*Frame) : 0.151
Stream size : 1.39 GiB (91%)
Title : wolf1245 & MediaBit
Writing library : x264 core 157 r2958 57baac4
Encoding settings : cabac=1 / ref=12 / deblock=1:-2:-2 / analyse=0x3:0x133 / me=umh / subme=11 / psy=1 / psy_rd=1.02:0.06 / mixed_ref=1 / me_range=48 / chroma_me=1 / trellis=2 / 8x8dct=1 / cqm=0 / deadzone=21,11 / fast_pskip=0 / chroma_qp_offset=-3 / threads=10 / lookahead_threads=2 / sliced_threads=0 / nr=0 / decimate=0 / interlaced=0 / bluray_compat=0 / constrained_intra=0 / bframes=12 / b_pyramid=2 / b_adapt=2 / b_bias=0 / direct=3 / weightb=1 / open_gop=0 / weightp=2 / keyint=240 / keyint_min=24 / scenecut=40 / intra_refresh=0 / rc_lookahead=55 / rc=2pass / mbtree=0 / bitrate=2049 / ratetol=1.0 / qcomp=0.60 / qpmin=0 / qpmax=69 / qpstep=4 / cplxblur=20.0 / qblur=0.5 / vbv_maxrate=50000 / vbv_bufsize=62500 / nal_hrd=none / filler=0 / ip_ratio=1.40 / pb_ratio=1.30 / aq=2:0.80
Language : English
Default : Yes
Forced : No
Color range : Limited
Color primaries : BT.709
Transfer characteristics : BT.709
Matrix coefficients : BT.709
Audio
ID : 2
Format : AC-3
Format/Info : Audio Coding 3
Commercial name : Dolby Digital
Codec ID : A_AC3
Duration : 1 h 37 min
Bit rate mode : Constant
Bit rate : 192 kb/s
Channel(s) : 2 channels
Channel layout : L R
Sampling rate : 48.0 kHz
Frame rate : 31.250 FPS (1536 SPF)
Compression mode : Lossy
Stream size : 133 MiB (9%)
Title : MVO [@MUZOBOZ@] MediaBit
Language : Russian
Service kind : Complete Main
Default : Yes
Forced : No
Релиз от: &
piratbit.pw



Скачать Все оттенки Токио через торрент https://b.radikal.ru/b36/2009/49/559b03b1aa86.jpg Скачать фильм Все оттенки Токио через торрент бесплантно в хорошем качестве Описание: Пытаясь бежать от прошлого, Маргарет переезжает в Японию. Днем она преподает английский, а ночью ищет впечатлений в ... 10 10 8
Торрент: Зарегистрирован [2020-09-26 07:33] · скачан: 253 раз
Статус: T временная
Размер: 1.52 GB
Как cкачать? Как скачать Все оттенки Токио через торрент | qTorrent

28-11-2019 20:33  

Отключить всю рекламу на сайте

28-09-2020 07:02 Все оттенки Токио Скачать торрент  

фильм про молодую американскую давалку. унылый. не о чем. автору спасибо за релиз!piratbit.pw



    Дорогой пользователь! Огромная просьба, поблагодарите релизера, оцените раздачу и оставьте свои комментарий, если Вы скачали Все оттенки Токио через торрент бесплатно! Внесите свою лепту в развитие PiratBit!
    Комментировать посты могут только пользователи прошедшие не сложную регистрацию
    Показать сообщения:    

    Все оттенки Токио через торрент
    Скачать бесплатно Все оттенки Токио
    Все оттенки Токио скачать торрент
    Все оттенки Токио смотреть онлайн
    Cкачать фильм Все оттенки Токио бесплатно
    Все оттенки Токио скачать торрент в хорошем качестве
    Все оттенки Токио смотреть онлайн бесплатно в хорошем качестве


    Вы не можете начинать темы
    Вы не можете отвечать на сообщения
    Вы не можете редактировать свои сообщения
    Вы не можете удалять свои сообщения
    Вы не можете голосовать в опросах
    Вы не можете прикреплять файлы к сообщениям
    Вы можете скачивать файлы