Ссылка на приватное зеркало нашего сайта всего за 1$. Внимание количество ограничено!!!

2 сезон

iTunes

1 сезон

1

2 сезон

2 сезон

iTunes

1 сезон

RePack

30

Новинка

ВАЖНО

ИГРА 18+

pack

RePack

MK11
pack

Забери бонус

RePack

jed

!!Акция!!

Alien_Rage

RePack

fifa19

RePack

Assassins Creed: Odyssey

RePack

NEED FOR SPEED™ PAYBACK

4 сезон

9 сезон

Бесстыжие 9 сезон

Все сериалы

все сериалы на PB.wtf

RePack

FAR CRY 5
  

Билл и Тед / Bill & Ted Face the Music (Дин Паризо) [2020 г., Комедия, фантастика, музыка, HDRip-AVC] [DUB] [iTunes] от MediaBit piratbit.pw

Билл и Тед через торрент piratbit.pw

Раздают: 1 [ 0 KB/s ]
Размер: 1.45 GB | Добавлен: 26 д. назад | Торрент скачан:41 раз
Скачать  

24-09-2020 17:11 Билл и Тед Скачать торрент  


Билл и Тед / Bill & Ted Face the Music
Информация о фильме:
Название: Билл и Тед
Оригинальное название: Bill & Ted Face the Music
Год выхода: 2020
Жанр: Комедия, фантастика, музыка, фэнтези
Режиссер: Дин Паризо
В ролях: Киану Ривз, Алекс Уинтер, Кристен Шаал, Самара Уивинг, Бригитт Ланди-Пейн, Уильям Сэдлер, Энтони Кэрриган, Эринн Хэйс, Джейма Мейс, Хэл Лэндон мл.

Описание: Музыканты-раздолбаи Билл и Тед всю жизнь верили в пророчество, что их рок-н-ролл спасёт вселенную от гибели. И вот, глобальная катастрофа уже на носу, и на спасение мира у парней остается чуть больше часа. И тогда они решают отправиться в будущее, чтобы стырить песню… у самих себя. Вместе с папашами в путешествие отправляются уже взрослые дочери Билла и Теда. Смогут ли папины дочки выдержать напор отцовского креатива?

rating

Страна: США, Канада, Италия
Студия: Hammerstone Studios, Dial 9, Dugan Entertainment
Продолжительность: 01:31:55
Перевод: Дублированный - iTunes



Информация о файле:
Кодек: AVC
Формат: MKV
Качество: HDRip-AVC
Видео: MPEG-4 AVC, 1024x428 (2.40:1), 23.976 fps, 1427 kb/s, 0.136
Аудио RU: AC3, 6 ch, 48 kHz, 384 kbps
Аудио EN: AC3, 6 ch, 48 kHz, 448 kbps
Субтитры: Русские (Full), английские
Навигация по главам: Есть

x264 info: frame I:1259 Avg QP:17.00 size: 57322
x264 info: frame P:30914 Avg QP:21.09 size: 15560
x264 info: frame B:100090 Avg QP:22.85 size: 4300
General
Unique ID : 245544840998213484724404628817763116784 (0xB8BA3758ACDA038182408D4BC6F826F0)
Complete name : D:uTorrentРипы_от_wolf1245_MediaBitBill and Ted Face The Music 2020 from wolf1245 & MediaBit.mkv
Format : Matroska
Format version : Version 4
File size : 1.45 GiB
Duration : 1 h 31 min
Overall bit rate : 2 260 kb/s
Movie name : Bill and Ted Face The Music 2020 from wolf1245 & MediaBit
Encoded date : UTC 2020-11-08 08:25:51
Writing application : mkvmerge v51.0.0 ('I Wish') 64-bit
Writing library : libebml v1.4.0 + libmatroska v1.6.2
Video
ID : 1
Format : AVC
Format/Info : Advanced Video Codec
Format profile : High@L4.1
Format settings : CABAC / 12 Ref Frames
Format settings, CABAC : Yes
Format settings, Reference frames : 12 frames
Codec ID : V_MPEG4/ISO/AVC
Duration : 1 h 31 min
Bit rate : 1 427 kb/s
Width : 1 024 pixels
Height : 428 pixels
Display aspect ratio : 2.40:1
Frame rate mode : Constant
Frame rate : 23.976 (24000/1001) FPS
Color space : YUV
Chroma subsampling : 4:2:0
Bit depth : 8 bits
Scan type : Progressive
Bits/(Pixel*Frame) : 0.136
Stream size : 938 MiB (63%)
Title : wolf1245 & MediaBit
Writing library : x264 core 157 r2958 57baac4
Encoding settings : cabac=1 / ref=12 / deblock=1:-3:-3 / analyse=0x3:0x133 / me=umh / subme=11 / psy=1 / psy_rd=1.03:0.03 / mixed_ref=1 / me_range=48 / chroma_me=1 / trellis=2 / 8x8dct=1 / cqm=0 / deadzone=21,11 / fast_pskip=0 / chroma_qp_offset=-3 / threads=10 / lookahead_threads=2 / sliced_threads=0 / nr=0 / decimate=0 / interlaced=0 / bluray_compat=0 / constrained_intra=0 / bframes=12 / b_pyramid=2 / b_adapt=2 / b_bias=0 / direct=3 / weightb=1 / open_gop=0 / weightp=2 / keyint=240 / keyint_min=24 / scenecut=40 / intra_refresh=0 / rc_lookahead=100 / rc=2pass / mbtree=0 / bitrate=1427 / ratetol=1.0 / qcomp=0.60 / qpmin=0 / qpmax=69 / qpstep=4 / cplxblur=20.0 / qblur=0.5 / vbv_maxrate=50000 / vbv_bufsize=62500 / nal_hrd=none / filler=0 / ip_ratio=1.40 / pb_ratio=1.30 / aq=2:0.80
Language : English
Default : Yes
Forced : No
Color range : Limited
Color primaries : BT.709
Transfer characteristics : BT.709
Matrix coefficients : BT.709
Audio #1
ID : 2
Format : AC-3
Format/Info : Audio Coding 3
Commercial name : Dolby Digital
Codec ID : A_AC3
Duration : 1 h 31 min
Bit rate mode : Constant
Bit rate : 384 kb/s
Channel(s) : 6 channels
Channel layout : L R C LFE Ls Rs
Sampling rate : 48.0 kHz
Frame rate : 31.250 FPS (1536 SPF)
Compression mode : Lossy
Stream size : 252 MiB (17%)
Title : DUB | iTunes
Language : Russian
Service kind : Complete Main
Default : Yes
Forced : No
Audio #2
ID : 3
Format : AC-3
Format/Info : Audio Coding 3
Commercial name : Dolby Digital
Codec ID : A_AC3
Duration : 1 h 31 min
Bit rate mode : Constant
Bit rate : 448 kb/s
Channel(s) : 6 channels
Channel layout : L R C LFE Ls Rs
Sampling rate : 48.0 kHz
Frame rate : 31.250 FPS (1536 SPF)
Compression mode : Lossy
Stream size : 295 MiB (20%)
Title : Original
Language : English
Service kind : Complete Main
Default : No
Forced : No
Text #1
ID : 4
Format : UTF-8
Codec ID : S_TEXT/UTF8
Codec ID/Info : UTF-8 Plain Text
Duration : 1 h 31 min
Bit rate : 106 b/s
Count of elements : 1571
Stream size : 71.1 KiB (0%)
Title : Full
Language : Russian
Default : No
Forced : No
Text #2
ID : 5
Format : UTF-8
Codec ID : S_TEXT/UTF8
Codec ID/Info : UTF-8 Plain Text
Duration : 1 h 31 min
Bit rate : 63 b/s
Count of elements : 1583
Stream size : 42.1 KiB (0%)
Title : Full
Language : English
Default : No
Forced : No
Text #3
ID : 6
Format : UTF-8
Codec ID : S_TEXT/UTF8
Codec ID/Info : UTF-8 Plain Text
Duration : 1 h 31 min
Bit rate : 68 b/s
Count of elements : 1733
Stream size : 45.4 KiB (0%)
Title : SDH
Language : English
Default : No
Forced : No
Menu
00:00:00.000 : :Studio Logo
00:00:32.958 : :Prologue
00:01:56.709 : :Wedding
00:06:32.083 : :Couples' Therapy
00:09:52.917 : :Respecting the Situation
00:20:54.166 : :Plagiarizer
00:25:49.250 : :Putting Plans in Place
00:30:04.500 : :Assembling a Band
00:41:56.542 : :More Members
00:47:08.958 : :Hell
00:51:41.917 : :Face the Music
00:59:04.207 : :The Last Member
01:10:00.082 : :The Prophesy
01:24:14.708 : :End Credits
01:29:37.708 : :One Last Thing to Do
Релиз от: & &

piratbit.pw



Скачать Билл и Тед через торрент https://a.radikal.ru/a33/2009/d6/eb36450cde09.jpg Скачать фильм Билл и Тед через торрент бесплантно в хорошем качестве Описание: Музыканты-раздолбаи Билл и Тед всю жизнь верили в пророчество, что их рок-н-ролл спасёт вселенную от гибели. И вот, глобальная ... 8.7 10 3
Торрент: Зарегистрирован [2020-11-08 08:38] · скачан: 41 раз
Статус: √ проверено
Размер: 1.45 GB
Как cкачать? Как скачать Билл и Тед через торрент | qTorrent



Последний раз редактировалось: Lithuania (2020-11-08 08:38), всего редактировалось 1 раз

28-11-2019 20:33  

Отключить всю рекламу на сайте

27-09-2020 12:27 Билл и Тед Скачать торрент  

Какая же это ХРЕНЬ(( Не советуюpiratbit.pw



30-09-2020 10:10 Билл и Тед Скачать торрент  

kamisata писал(а):

Какая же это ХРЕНЬ(( Не советую

Спасибо за мнение!piratbit.pw



    Дорогой пользователь! Огромная просьба, поблагодарите релизера, оцените раздачу и оставьте свои комментарий, если Вы скачали Билл и Тед через торрент бесплатно! Внесите свою лепту в развитие PiratBit!
    Комментировать посты могут только пользователи прошедшие не сложную регистрацию
    Показать сообщения:    

    Билл и Тед через торрент
    Скачать бесплатно Билл и Тед
    Билл и Тед скачать торрент
    Билл и Тед смотреть онлайн
    Cкачать фильм Билл и Тед бесплатно
    Билл и Тед скачать торрент в хорошем качестве
    Билл и Тед смотреть онлайн бесплатно в хорошем качестве


    Вы не можете начинать темы
    Вы не можете отвечать на сообщения
    Вы не можете редактировать свои сообщения
    Вы не можете удалять свои сообщения
    Вы не можете голосовать в опросах
    Вы не можете прикреплять файлы к сообщениям
    Вы можете скачивать файлы