Ссылка на приватное зеркало нашего сайта всего за 1$. Внимание количество ограничено!!!

2 сезон

iTunes

1 сезон

1

2 сезон

2 сезон

iTunes

1 сезон

RePack

30

Новинка

ВАЖНО

ИГРА 18+

pack

RePack

MK11
pack

Забери бонус

RePack

jed

!!Акция!!

Alien_Rage

RePack

fifa19

RePack

Assassins Creed: Odyssey

RePack

NEED FOR SPEED™ PAYBACK

4 сезон

9 сезон

Бесстыжие 9 сезон

Все сериалы

все сериалы на PB.wtf

RePack

FAR CRY 5
  

Билл и Тед / Bill & Ted Face the Music (Дин Паризо) [2020 г., Комедия, фантастика, музыка, WEB-DLRip-AVC] [DUB] [iTunes] от MediaBit piratbit.pw

Билл и Тед через торрент piratbit.pw

Размер: 752 MB | Добавлен: 2 мес. 4 д. назад | Торрент скачан:53 раза
Скачать  

24-09-2020 17:10 Билл и Тед Скачать торрент  


Билл и Тед / Bill & Ted Face the Music
Информация о фильме:
Название: Билл и Тед
Оригинальное название: Bill & Ted Face the Music
Год выхода: 2020
Жанр: Комедия, фантастика, музыка, фэнтези
Режиссер: Дин Паризо
В ролях: Киану Ривз, Алекс Уинтер, Кристен Шаал, Самара Уивинг, Бригитт Ланди-Пейн, Уильям Сэдлер, Энтони Кэрриган, Эринн Хэйс, Джейма Мейс, Хэл Лэндон мл.

Описание: Музыканты-раздолбаи Билл и Тед всю жизнь верили в пророчество, что их рок-н-ролл спасёт вселенную от гибели. И вот, глобальная катастрофа уже на носу, и на спасение мира у парней остается чуть больше часа. И тогда они решают отправиться в будущее, чтобы стырить песню… у самих себя. Вместе с папашами в путешествие отправляются уже взрослые дочери Билла и Теда. Смогут ли папины дочки выдержать напор отцовского креатива?

rating

Страна: США, Канада, Италия
Студия: Hammerstone Studios, Dial 9, Dugan Entertainment
Продолжительность: 01:31:55
Перевод: Дублированный - iTunes



Информация о файле:
Кодек: AVC
Формат: MKV
Качество: WEB-DLRip-AVC
Видео: MPEG-4 AVC, 720x300 (2.40:1), 23.976 fps, 1046 kb/s, 0.202
Аудио RU: ACC-HE, 2 ch, 48 kHz, 96 kbps
Субтитры: Русские (Full), английские
Навигация по главам: Есть

x264 info: frame I:1317 Avg QP:14.96 size: 38661
x264 info: frame P:33188 Avg QP:18.27 size: 10936
x264 info: frame B:97741 Avg QP:20.47 size: 3142
x264 info: consecutive B-frames: 2.3% 2.9% 9.4% 56.4% 13.6% 11.0% 3.1% 0.8% 0.2% 0.1% 0.1% 0.1% 0.1%
=====================================================
General
Unique ID : 10784672694833491988589414401095847200 (0x81D0D6AA2084794406F6FA036A14D20)
Complete name : D:uTorrentBill and Ted Face the Music 2020 from wolf1245 & MediaBit.mkv
Format : Matroska
Format version : Version 4
File size : 752 MiB
Duration : 1 h 31 min
Overall bit rate : 1 144 kb/s
Movie name : Bill and Ted Face the Music 2020 from wolf1245 & MediaBit
Encoded date : UTC 2020-09-24 12:07:44
Writing application : mkvmerge v50.0.0 ('Awakenings') 64-bit
Writing library : libebml v1.4.0 + libmatroska v1.6.2

Video
ID : 1
Format : AVC
Format/Info : Advanced Video Codec
Format profile : High@L4.1
Format settings : CABAC / 12 Ref Frames
Format settings, CABAC : Yes
Format settings, Reference frames : 12 frames
Codec ID : V_MPEG4/ISO/AVC
Duration : 1 h 31 min
Bit rate : 1 046 kb/s
Width : 720 pixels
Height : 300 pixels
Display aspect ratio : 2.40:1
Frame rate mode : Constant
Frame rate : 23.976 (24000/1001) FPS
Color space : YUV
Chroma subsampling : 4:2:0
Bit depth : 8 bits
Scan type : Progressive
Bits/(Pixel*Frame) : 0.202
Stream size : 688 MiB (91%)
Title : from wolf1245 & MediaBit
Writing library : x264 core 157 r2958 57baac4
Encoding settings : cabac=1 / ref=12 / deblock=1:-2:-2 / analyse=0x3:0x133 / me=umh / subme=11 / psy=1 / psy_rd=0.98:0.08 / mixed_ref=1 / me_range=48 / chroma_me=1 / trellis=2 / 8x8dct=1 / cqm=0 / deadzone=21,11 / fast_pskip=0 / chroma_qp_offset=-3 / threads=10 / lookahead_threads=2 / sliced_threads=0 / nr=0 / decimate=0 / interlaced=0 / bluray_compat=0 / constrained_intra=0 / bframes=12 / b_pyramid=2 / b_adapt=2 / b_bias=0 / direct=3 / weightb=1 / open_gop=0 / weightp=2 / keyint=240 / keyint_min=24 / scenecut=40 / intra_refresh=0 / rc_lookahead=60 / rc=2pass / mbtree=0 / bitrate=1046 / ratetol=1.0 / qcomp=0.60 / qpmin=0 / qpmax=69 / qpstep=4 / cplxblur=20.0 / qblur=0.5 / vbv_maxrate=50000 / vbv_bufsize=62500 / nal_hrd=none / filler=0 / ip_ratio=1.40 / pb_ratio=1.30 / aq=1:0.90
Language : English
Default : Yes
Forced : No
Color range : Limited
Color primaries : BT.709
Transfer characteristics : BT.709
Matrix coefficients : BT.709

Audio
ID : 2
Format : AAC LC SBR
Format/Info : Advanced Audio Codec Low Complexity with Spectral Band Replication
Commercial name : HE-AAC
Format settings : Implicit
Codec ID : A_AAC-2
Duration : 1 h 31 min
Bit rate : 96.0 kb/s
Channel(s) : 2 channels
Channel layout : L R
Sampling rate : 48.0 kHz
Frame rate : 23.438 FPS (2048 SPF)
Compression mode : Lossy
Stream size : 63.0 MiB (8%)
Title : DUB | iTunes
Language : Russian
Default : Yes
Forced : No

Text #1
ID : 3
Format : UTF-8
Codec ID : S_TEXT/UTF8
Codec ID/Info : UTF-8 Plain Text
Duration : 1 h 31 min
Bit rate : 106 b/s
Count of elements : 1571
Stream size : 71.1 KiB (0%)
Title : Full
Language : Russian
Default : No
Forced : No

Text #2
ID : 4
Format : UTF-8
Codec ID : S_TEXT/UTF8
Codec ID/Info : UTF-8 Plain Text
Duration : 1 h 31 min
Bit rate : 63 b/s
Count of elements : 1583
Stream size : 42.1 KiB (0%)
Title : Full
Language : English
Default : No
Forced : No

Text #3
ID : 5
Format : UTF-8
Codec ID : S_TEXT/UTF8
Codec ID/Info : UTF-8 Plain Text
Duration : 1 h 31 min
Bit rate : 68 b/s
Count of elements : 1733
Stream size : 45.4 KiB (0%)
Title : SDH
Language : English
Default : No
Forced : No

Menu
00:00:00.000 : :Studio Logo
00:00:33.000 : :Prologue
00:01:56.000 : :Wedding
00:06:32.000 : :Couples' Therapy
00:09:53.000 : :Respecting the situation
00:20:54.000 : :Plagiarizer
00:25:49.000 : :Putting plans in place
00:30:05.000 : :Assembling a band
00:41:57.000 : :More members
00:47:09.000 : :Hell
00:51:42.000 : :Face the music
00:59:05.000 : :The last member
01:10:00.000 : :The prophesy
01:24:15.000 : :End Credits
01:29:38.000 : :One last thing to do
Релиз от: &
piratbit.pw



Скачать Билл и Тед через торрент https://a.radikal.ru/a33/2009/d6/eb36450cde09.jpg Скачать фильм Билл и Тед через торрент бесплантно в хорошем качестве Описание: Музыканты-раздолбаи Билл и Тед всю жизнь верили в пророчество, что их рок-н-ролл спасёт вселенную от гибели. И вот, глобальная ... 10 10 1
Торрент: Зарегистрирован [2020-09-24 17:10] · скачан: 53 раз
Статус: √ проверено
Размер: 752 MB
Как cкачать? Как скачать Билл и Тед через торрент | qTorrent

28-11-2019 20:33  

Отключить всю рекламу на сайте

    Дорогой пользователь! Огромная просьба, поблагодарите релизера, оцените раздачу и оставьте свои комментарий, если Вы скачали Билл и Тед через торрент бесплатно! Внесите свою лепту в развитие PiratBit!
    Комментировать посты могут только пользователи прошедшие не сложную регистрацию
    Показать сообщения:    

    Билл и Тед через торрент
    Скачать бесплатно Билл и Тед
    Билл и Тед скачать торрент
    Билл и Тед смотреть онлайн
    Cкачать фильм Билл и Тед бесплатно
    Билл и Тед скачать торрент в хорошем качестве
    Билл и Тед смотреть онлайн бесплатно в хорошем качестве


    Вы не можете начинать темы
    Вы не можете отвечать на сообщения
    Вы не можете редактировать свои сообщения
    Вы не можете удалять свои сообщения
    Вы не можете голосовать в опросах
    Вы не можете прикреплять файлы к сообщениям
    Вы можете скачивать файлы