Ссылка на приватное зеркало нашего сайта всего за 1$. Внимание количество ограничено!!!

2 сезон

iTunes

1 сезон

1

2 сезон

2 сезон

iTunes

1 сезон

RePack

30

Ultimate

ВАЖНО

ИГРА 18+

pack

RePack

MK11
pack

Забери бонус

RePack

jed

!!Акция!!

Alien_Rage

RePack

fifa19

RePack

Assassins Creed: Odyssey

RePack

NEED FOR SPEED™ PAYBACK

4 сезон

9 сезон

Бесстыжие 9 сезон

Все сериалы

все сериалы на PB.wtf

RePack

FAR CRY 5
  

Энола Холмс / Enola Holmes (Гарри Брэдбир) [2020, Драма, криминал, детектив, WEB-DLRip-AVC] [MVO] [NewComers] от MediaBit piratbit.pw

Энола Холмс через торрент piratbit.pw

Раздают: 7 [ 0 KB/s ]
Размер: 1.63 GB | Добавлен: 2 мес. 4 д. назад | Торрент скачан:397 раз
Скачать  

24-09-2020 17:08 Энола Холмс Скачать торрент  


Энола Холмс / Enola Holmes
Информация о фильме:
Название: Энола Холмс
Оригинальное название: Enola Holmes
Год выхода: 2020
Жанр: Драма, криминал, детектив
Режиссер: Гарри Брэдбир
В ролях: Милли Бобби Браун, Генри Кавилл, Сэм Клафлин, Хелена Бонем Картер, Фиона Шоу, Адиль Ахтар, Фрэнсис де ла Тур, Луис Патридж, Сьюзан Уокома, Берн Горман и другие.

Описание: Англия, 1884 год - мир на грани перемен. Утром, в свой 16-й день рождения, Энола Холмс просыпается и обнаруживает, что ее мать исчезла, оставив после себя странный ассортимент подарков, но без видимой подсказки относительно того, куда она ушла и почему. После беззаботного детства Энола внезапно оказывается под опекой своих братьев Шерлока и Майкрофта, которые отправляют ее в школу для «настоящих» девушек. Отказываясь следовать их желаниям, Энола сбегает на поиски своей матери в Лондон.

rating

Страна: Великобритания
Студия: EH Productions, Legendary Pictures, PCMA Productions, Warner Bros.
Продолжительность: 02:03:55
Перевод: Профессиональный (многоголосый, закадровый) - NewComers



Информация о файле:
Кодек: AVC
Формат: MKV
Качество: WEB-DLRip-AVC
Видео: MPEG-4 AVC, 1024x428 (2.40:1), 24.000 fps, 1 439 kb/s, 0.137
Аудио RU: AC3, 6 ch, 48 kHz, 448 kbps
Субтитры: Софтсаб на надписи, форсированный

264 info: frame I:1784 Avg QP:14.78 size: 65892
x264 info: frame P:41081 Avg QP:18.94 size: 16449
x264 info: frame B:135563 Avg QP:20.58 size: 4009
x264 info: consecutive B-frames: 3.5% 3.5% 9.6% 17.1% 14.6% 46.9% 2.4% 0.5% 0.3% 0.2% 0.3% 0.2% 0.8%
==================================================
General
Unique ID : 100187642497049433453812221266170242849 (0x4B5F7025A28918F85A6A4641AAAC6721)
Complete name : D:uTorrentРипы_от_wolf1245_MediaBitEnola.Holmes.2020.WEB-DLRip-AVC from wolf1245 & MediaBit.mkv
Format : Matroska
Format version : Version 4
File size : 1.63 GiB
Duration : 2 h 3 min
Overall bit rate : 1 888 kb/s
Movie name : Enola.Holmes.2020.WEB-DLRip-AVC from wolf1245 & MediaBit
Encoded date : UTC 2020-09-24 16:23:25
Writing application : mkvmerge v50.0.0 ('Awakenings') 64-bit
Writing library : libebml v1.4.0 + libmatroska v1.6.2

Video
ID : 1
Format : AVC
Format/Info : Advanced Video Codec
Format profile : High@L4.1
Format settings : CABAC / 12 Ref Frames
Format settings, CABAC : Yes
Format settings, Reference frames : 12 frames
Codec ID : V_MPEG4/ISO/AVC
Duration : 2 h 3 min
Bit rate : 1 439 kb/s
Width : 1 024 pixels
Height : 428 pixels
Display aspect ratio : 2.40:1
Frame rate mode : Constant
Frame rate : 24.000 FPS
Color space : YUV
Chroma subsampling : 4:2:0
Bit depth : 8 bits
Scan type : Progressive
Bits/(Pixel*Frame) : 0.137
Stream size : 1.24 GiB (76%)
Title : wolf1245 & MediaBit
Writing library : x264 core 157 r2958 57baac4
Encoding settings : cabac=1 / ref=12 / deblock=1:-2:-2 / analyse=0x3:0x133 / me=umh / subme=11 / psy=1 / psy_rd=1.02:0.05 / mixed_ref=1 / me_range=48 / chroma_me=1 / trellis=2 / 8x8dct=1 / cqm=0 / deadzone=21,11 / fast_pskip=0 / chroma_qp_offset=-3 / threads=10 / lookahead_threads=2 / sliced_threads=0 / nr=0 / decimate=0 / interlaced=0 / bluray_compat=0 / constrained_intra=0 / bframes=12 / b_pyramid=2 / b_adapt=2 / b_bias=0 / direct=3 / weightb=1 / open_gop=0 / weightp=2 / keyint=240 / keyint_min=24 / scenecut=40 / intra_refresh=0 / rc_lookahead=60 / rc=2pass / mbtree=0 / bitrate=1439 / ratetol=1.0 / qcomp=0.60 / qpmin=0 / qpmax=69 / qpstep=4 / cplxblur=20.0 / qblur=0.5 / vbv_maxrate=50000 / vbv_bufsize=62500 / nal_hrd=none / filler=0 / ip_ratio=1.40 / pb_ratio=1.30 / aq=2:0.90
Default : Yes
Forced : No

Audio
ID : 2
Format : AC-3
Format/Info : Audio Coding 3
Commercial name : Dolby Digital
Codec ID : A_AC3
Duration : 2 h 3 min
Bit rate mode : Constant
Bit rate : 448 kb/s
Channel(s) : 6 channels
Channel layout : L R C LFE Ls Rs
Sampling rate : 48.0 kHz
Frame rate : 31.250 FPS (1536 SPF)
Compression mode : Lossy
Stream size : 397 MiB (24%)
Title : MVO | NewComers
Language : Russian
Service kind : Complete Main
Default : Yes
Forced : No

Text
ID : 3
Format : UTF-8
Codec ID : S_TEXT/UTF8
Codec ID/Info : UTF-8 Plain Text
Duration : 1 h 56 min
Bit rate : 2 b/s
Count of elements : 57
Stream size : 2.08 KiB (0%)
Title : Надписи
Language : Russian
Default : No
Forced : No
Релиз от: &
piratbit.pw



Скачать Энола Холмс через торрент https://b.radikal.ru/b35/2009/12/3b9487a1900d.jpg Скачать фильм Энола Холмс через торрент бесплантно в хорошем качестве Описание: Англия, 1884 год - мир на грани перемен. Утром, в свой 16-й день рождения, Энола Холмс просыпается и обнаруживает, что ее мать ... 10 10 13
Торрент: Зарегистрирован [2020-09-24 17:08] · скачан: 397 раз
Статус: √ проверено
Размер: 1.63 GB
Как cкачать? Как скачать Энола Холмс через торрент | qTorrent

28-11-2019 20:33  

Отключить всю рекламу на сайте

29-09-2020 01:20 Энола Холмс Скачать торрент  

Спасибо, скачаю для супруги!piratbit.pw



    Дорогой пользователь! Огромная просьба, поблагодарите релизера, оцените раздачу и оставьте свои комментарий, если Вы скачали Энола Холмс через торрент бесплатно! Внесите свою лепту в развитие PiratBit!
    Комментировать посты могут только пользователи прошедшие не сложную регистрацию
    Показать сообщения:    

    Энола Холмс через торрент
    Скачать бесплатно Энола Холмс
    Энола Холмс скачать торрент
    Энола Холмс смотреть онлайн
    Cкачать фильм Энола Холмс бесплатно
    Энола Холмс скачать торрент в хорошем качестве
    Энола Холмс смотреть онлайн бесплатно в хорошем качестве


    Вы не можете начинать темы
    Вы не можете отвечать на сообщения
    Вы не можете редактировать свои сообщения
    Вы не можете удалять свои сообщения
    Вы не можете голосовать в опросах
    Вы не можете прикреплять файлы к сообщениям
    Вы можете скачивать файлы