Ссылка на приватное зеркало нашего сайта всего за 1$. Внимание количество ограничено!!!

2 сезон

iTunes

1 сезон

1

2 сезон

2 сезон

iTunes

1 сезон

RePack

30

Новинка

ВАЖНО

ИГРА 18+

pack

RePack

MK11
pack

Забери бонус

RePack

jed

!!Акция!!

Alien_Rage

RePack

fifa19

RePack

Assassins Creed: Odyssey

RePack

NEED FOR SPEED™ PAYBACK

4 сезон

9 сезон

Бесстыжие 9 сезон

Все сериалы

все сериалы на PB.wtf

RePack

FAR CRY 5
  

В паутине лжи / Araña (Андрес Вуд) [2019 г., триллер, драма, криминал, WEB-DLRip, Профессиональный многоголосый закадровый "iTunes"] piratbit.pw

В паутине лжи через торрент piratbit.pw

Раздают: 1 [ 0 KB/s ]
Размер: 709 MB | Добавлен: 2 мес. 5 д. назад | Торрент скачан:33 раза
Скачать  

23-09-2020 18:29 В паутине лжи Скачать торрент  

В паутине лжи / Araña
Год выпуска: 2019
Страна: Чили, Аргентина, Бразилия / Bossa Nova Films, Magma Cine, Wood Producciones
Жанр: триллер, драма, криминал
Продолжительность: 01:45:19
Перевод: Профессиональный многоголосый закадровый (iTunes)
«Прошлое всегда рядом» :

Режиссер: Андрес Вуд

rating

В ролях: Мерседес Моран, Мария Вальверде, Марсело Алонсо, Педро Фонтейн, Габриель Урзуа, Фелипе Армас, Кайу Блат, Мария Грасия Оменя, Марио Хортон, Серхио Пинья

Описание: 1970 год. Инес, Аугусто и Жерардо по 20 лет. Они члены ультраправой группировки, которая при поддержке ЦРУ, хочет свергнуть диктатора. Вместе они совершат политическое преступление, которое изменит жизнь страны и навсегда разрушит их любовный треугольник. 40 лет спустя прошлое возвращается и не все готовы платить по счетам./

Качество: WEB-DLRip
Формат: AVI
Видео кодек: DivX
Аудио кодек: MP3
Видео: 640x272 (2.35:1), 24.000 fps, DivX Codec 4.x ~803 kbps avg, 0.19 bit/pixel
Аудио: 48 kHz, MPEG Layer 3, 2 ch, ~128.00 kbps avg
скриншот   скриншот   скриншот   скриншот  

Общее
Полное имя : F:\ФИЛЬМЫ\В паутине лжи.2019.WEB-DLRip.avi
Формат : AVI
Формат/Информация : Audio Video Interleave
Размер файла : 709 Мбайт
Продолжительность : 1 ч. 45 м.
Общий поток : 941 Кбит/сек
Программа кодирования : VirtualDubMod 1.5.10.3 | www.virtualdub-fr.org || (build 2550/release)
Библиотека кодирования : VirtualDubMod build 2550/release

Видео
Идентификатор : 0
Формат : MPEG-4 Visual
Профиль формата : Advanced Simple@L5
Настройки формата : BVOP3 / GMC3 / QPel
Параметр BVOP формата : 3
Параметр QPel формата : Да
Параметр GMC формата : 3 точки перехода
Параметр матрицы формата : Default (MPEG)
Идентификатор кодека : DIVX
Идентификатор кодека/Информация : Project Mayo
Идентификатор кодека/Подсказка : DivX 4
Продолжительность : 1 ч. 45 м.
Битрейт : 804 Кбит/сек
Ширина : 640 пикселей
Высота : 272 пикселя
Соотношение сторон : 2,35:1
Частота кадров : 24,000 кадра/сек
Цветовое пространство : YUV
Субдискретизация насыщенности : 4:2:0
Битовая глубина : 8 бит
Тип развёртки : Прогрессивная
Метод сжатия : С потерями
Бит/(Пиксели*Кадры) : 0.192
Размер потока : 605 Мбайт (85%)
Библиотека кодирования : XviD 1.2.1 (UTC 2008-12-04)

Аудио
Идентификатор : 1
Формат : MPEG Audio
Версия формата : Version 1
Профиль формата : Layer 3
Настройки формата : Joint stereo / MS Stereo
Идентификатор кодека : 55
Идентификатор кодека/Подсказка : MP3
Продолжительность : 1 ч. 45 м.
Вид битрейта : Постоянный
Битрейт : 128 Кбит/сек
Каналы : 2 канала
Частота : 48,0 КГц
Частота кадров : 41,667 кадра/сек (1152 SPF)
Метод сжатия : С потерями
Размер потока : 96,4 Мбайт (14%)
Выравнивание : Соединение по промежуткам
Продолжительность промежутка : 42 мс. (1,00 видеокадр)
Время предзагрузки промежутка : 504 мс.
Библиотека кодирования : LAME3.99r
Настройки программы : -m j -V 4 -q 2 -lowpass 17 -b 128

piratbit.pw



Скачать В паутине лжи через торрент http://pic1.kartinco.top/images/12/cpzkj.jpg Скачать фильм В паутине лжи через торрент бесплантно в хорошем качестве Описание: 1970 год. Инес, Аугусто и Жерардо по 20 лет. Они члены ультраправой группировки, которая при поддержке ЦРУ, хочет свергнуть ... 7.5 10 2
Торрент: Зарегистрирован [2020-09-23 18:29] · скачан: 33 раз
Статус: √ проверено
Размер: 709 MB
Как cкачать? Как скачать В паутине лжи через торрент | qTorrent

% Раздел Тема Автор DL S | L
Фильмы 2019-2020 [DVDrip, WEB-DLRip, HDrip] (DUB, MVO) [ 1.46 GB ] В паутине лжи / Spider / Araña [2019 WEB-DLRip] bober100 Скачать
2 | 0
Фильмы (WEB-DL 720p, 1080p) [ 3.65 GB ] В паутине лжи / Spider / Araña [2019 WEB-DL 1080p] bober100 Скачать
2 | 0

28-11-2019 20:33  

Отключить всю рекламу на сайте

    Дорогой пользователь! Огромная просьба, поблагодарите релизера, оцените раздачу и оставьте свои комментарий, если Вы скачали В паутине лжи через торрент бесплатно! Внесите свою лепту в развитие PiratBit!
    Комментировать посты могут только пользователи прошедшие не сложную регистрацию
    Показать сообщения:    

    В паутине лжи через торрент
    Скачать бесплатно В паутине лжи
    В паутине лжи скачать торрент
    В паутине лжи смотреть онлайн
    Cкачать фильм В паутине лжи бесплатно
    В паутине лжи скачать торрент в хорошем качестве
    В паутине лжи смотреть онлайн бесплатно в хорошем качестве


    Вы не можете начинать темы
    Вы не можете отвечать на сообщения
    Вы не можете редактировать свои сообщения
    Вы не можете удалять свои сообщения
    Вы не можете голосовать в опросах
    Вы не можете прикреплять файлы к сообщениям
    Вы можете скачивать файлы