Ссылка на приватное зеркало нашего сайта всего за 1$. Внимание количество ограничено!!!

2 сезон

iTunes

1 сезон

1

2 сезон

2 сезон

iTunes

1 сезон

RePack

30

Новинка

ВАЖНО

ИГРА 18+

pack

RePack

MK11
pack

Забери бонус

RePack

jed

!!Акция!!

Alien_Rage

RePack

fifa19

RePack

Assassins Creed: Odyssey

RePack

NEED FOR SPEED™ PAYBACK

4 сезон

9 сезон

Бесстыжие 9 сезон

Все сериалы

все сериалы на PB.wtf

RePack

FAR CRY 5
  

Тьма: Вторжение / Столкновение с тьмой / Dark Encounter (Карл Страти) [2019, Ужасы, фантастика, BDRip-AVC] MVO [iTunes] piratbit.pw

Тьма: Вторжение через торрент piratbit.pw

Раздают: 15 [ 0 KB/s ]
Размер: 2.13 GB | Добавлен: 2 мес. назад | Торрент скачан:252 раза
Скачать  

23-09-2020 04:11 Тьма: Вторжение Скачать торрент  

Тьма: Вторжение | Столкновение с тьмой | Dark Encounter
Год выпуска: 2019
Страна: Великобритания
Студия: Goldfinch, Strathie Film
Жанр: Ужасы, фантастика
Продолжительность: 01:38:04
Перевод: Профессиональный многоголосый | iTunes
Субтитры: Русские (Forced), английские (Forced (хардсаб))

Режиссер: Карл Страти

rating

В ролях: Лора Фрейзер, Мел Райдо, Сид Феникс, Грант Мастерс, Спайк Уайт, Элис Лоу, Николас Пиннок, Винсент Риган, Шон Нопп

Описание: История разворачивается спустя год после таинственного исчезновения 8-летней девочки. Однажды вечером, после того как ее семья вернулась домой с поминальной службы, в лесу неподалеку от них зажигаются странные огни. Вскоре герои узнают страшные подробности о пропаже маленькой девочки.

Качество: BDRip-AVC
Формат: MKV

Видео: 1024x428 (2.40:1), 23.976 fps, MPEG-4 AVC ~ 2282 Kbps avg, 0.217 bit/pixel
Аудио: AC3, 48 kHz, 6 ch, ~384.00 kbps avg | русский | iTunes
Аудио: AC3, 48 kHz, 6 ch, ~448.00 kbps avg | английский | Оригинал
скриншот  скриншот  скриншот  скриншот  скриншот  

Общее
Уникальный идентификатор : 116541986013324146417661678868213445011 (0x57AD2B8952D7D9E42DCD265D7462B193)
Полное имя : Dark.Encounter.2019.BDRip.2.13Gb.x264.mkv
Формат : Matroska
Версия формата : Version 4
Размер файла : 2, 13 Гбайт
Продолжительность : 1 ч. 38 м.
Общий поток : 3 109 Кбит/сек
Название фильма : Тьма: Вторжение / Встреча с тьмой / Dark Encounter (2019)
Дата кодирования : UTC 2020-09-23 02:12:39
Программа кодирования : mkvmerge v47.0.0 ('Black Flag') 64-bit
Библиотека кодирования : libebml v1.3.10 + libmatroska v1.5.2
Обложка : Yes
Attachments : cover.jpg

Видео
Идентификатор : 1
Формат : AVC
Формат/Информация : Advanced Video Codec
Профиль формата : High@L4.1
Настройки формата : CABAC / 10 Ref Frames
Параметр CABAC формата : Да
Параметр RefFrames формата : 10 кадров
Идентификатор кодека : V_MPEG4/ISO/AVC
Продолжительность : 1 ч. 38 м.
Битрейт : 2 282 Кбит/сек
Ширина : 1 024 пикселя
Высота : 428 пикселей
Соотношение сторон : 2, 40:1
Режим частоты кадров : Постоянный
Частота кадров : 23, 976 кадра/сек
Цветовое пространство : YUV
Субдискретизация насыщенности : 4:2:0
Битовая глубина : 8 бит
Тип развёртки : Прогрессивная
Бит/(Пиксели*Кадры) : 0.217
Размер потока : 1, 56 Гбайт (73%)
Заголовок : #stillet
Библиотека кодирования : x264 core 152 r2851bm ba24899
Настройки программы : cabac=1 / ref=10 / deblock=1:-2:-2 / analyse=0x3:0x113 / me=umh / subme=10 / psy=1 / psy_rd=1.00:0.15 / mixed_ref=1 / me_range=32 / chroma_me=1 / trellis=2 / 8x8dct=1 / cqm=0 / deadzone=21, 11 / fast_pskip=0 / chroma_qp_offset=-3 / threads=8 / lookahead_threads=3 / sliced_threads=0 / nr=0 / decimate=0 / interlaced=0 / bluray_compat=0 / constrained_intra=0 / bframes=12 / b_pyramid=2 / b_adapt=2 / b_bias=0 / direct=3 / weightb=1 / open_gop=0 / weightp=2 / keyint=240 / keyint_min=23 / scenecut=40 / intra_refresh=0 / rc=2pass / mbtree=0 / bitrate=2282 / ratetol=1.0 / qcomp=0.60 / qpmin=0 / qpmax=69 / qpstep=4 / cplxblur=20.0 / qblur=0.5 / ip_ratio=1.40 / pb_ratio=1.30 / aq=1:1.00
Язык : English
Default : Да
Forced : Нет

Аудио #1
Идентификатор : 2
Формат : AC-3
Формат/Информация : Audio Coding 3
Коммерческое название : Dolby Digital
Идентификатор кодека : A_AC3
Продолжительность : 1 ч. 37 м.
Вид битрейта : Постоянный
Битрейт : 384 Кбит/сек
Каналы : 6 каналов
Channel layout : L R C LFE Ls Rs
Частота : 48, 0 КГц
Частота кадров : 31, 250 кадров/сек (1536 SPF)
Метод сжатия : С потерями
Размер потока : 267 Мбайт (12%)
Заголовок : iTunes
Язык : Russian
Service kind : Complete Main
Default : Да
Forced : Да

Аудио #2
Идентификатор : 3
Формат : AC-3
Формат/Информация : Audio Coding 3
Коммерческое название : Dolby Digital
Идентификатор кодека : A_AC3
Продолжительность : 1 ч. 38 м.
Вид битрейта : Постоянный
Битрейт : 448 Кбит/сек
Каналы : 6 каналов
Channel layout : L R C LFE Ls Rs
Частота : 48, 0 КГц
Частота кадров : 31, 250 кадров/сек (1536 SPF)
Метод сжатия : С потерями
Размер потока : 314 Мбайт (14%)
Язык : English
Service kind : Complete Main
Default : Нет
Forced : Нет

Текст
Идентификатор : 4
Формат : UTF-8
Идентификатор кодека : S_TEXT/UTF8
Идентификатор кодека/Информация : UTF-8 Plain Text
Продолжительность : 1 ч. 26 м.
Битрейт : 0 бит/сек
Count of elements : 8
Размер потока : 635 байт (0%)
Заголовок : Forced
Язык : Russian
Default : Да
Forced : Да

Меню
00:00:00.000 : en:Chapter 01
00:05:47.222 : en:Chapter 02
00:15:34.559 : en:Chapter 03
00:24:46.360 : en:Chapter 04
00:31:32.015 : en:Chapter 05
00:42:15.199 : en:Chapter 06
00:48:20.898 : en:Chapter 07
00:58:17.994 : en:Chapter 08
01:06:39.621 : en:Chapter 09
01:18:16.150 : en:Chapter 10
01:24:29.273 : en:Chapter 11
01:33:17.342 : en:Chapter 12

piratbit.pw



Скачать Тьма: Вторжение через торрент https://i112.fastpic.ru/big/2020/0923/6f/5297d26288cc18aa5ee391900158d46f.jpg Скачать фильм Тьма: Вторжение через торрент бесплантно в хорошем качестве Описание: История разворачивается спустя год после таинственного исчезновения 8-летней девочки. Однажды вечером, после того как ее семья ... 9.8 10 12
Info! Золотая раздача, скачанное не засчитывается.
Торрент: Зарегистрирован [2020-09-23 04:11] · скачан: 252 раз
Статус: √ проверено
Размер: 2.13 GB
Как cкачать? Как скачать Тьма: Вторжение через торрент | qTorrent

% Раздел Тема Автор DL S | L
Фильмы [HD 720p, 1080p] (Хороший звук DUB, MVO) [ 10.21 GB ] Тьма: Вторжение / Столкновение с тьмой / Dark Encounter [2019 BDRip 1080p] MVO bober100 Скачать
1 | 0
Фильмы 2019-2020 [DVDrip, WEB-DLRip, HDrip] (DUB, MVO) [ 745 MB ] Тьма: Вторжение / Столкновение с тьмой / Dark Encounter [2019 HDRip-AVC] [MVO] от MediaBit Lithuania Скачать
2 | 0
Фильмы 2019-2020 [DVDrip, WEB-DLRip, HDrip] (DUB, MVO) [ 745 MB ] Тьма: Вторжение / Столкновение с тьмой / Dark Encounter [2019 BDRip] MVO bober100 Скачать
1 | 0
Фильмы [HD 720p, 1080p] (Хороший звук DUB, MVO) [ 4.11 GB ] Тьма: Вторжение / Столкновение с тьмой / Dark Encounter [2019 BDRip 720p] MVO bober100 Скачать
4 | 0
Фильмы (Blu-ray, BD-Remux, HDDVD) [ 15.04 GB ] Тьма: Вторжение / Столкновение с тьмой / Dark Encounter [2019 BD Remux 1080p] MVO bober100 Скачать
2 | 0
Фильмы 2019-2020 [DVDrip, WEB-DLRip, HDrip] (DUB, MVO) [ 1.45 GB ] Тьма: Вторжение / Столкновение с тьмой / Dark Encounter [2019 BDRip-AVC] MVO bober100 Скачать
5 | 0
Фильмы 2019-2020 [DVDrip, WEB-DLRip, HDrip] (DUB, MVO) [ 1.46 GB ] Тьма: Вторжение / Столкновение с тьмой / Dark Encounter [2019 BDRip] MVO bober100 Скачать
1 | 0

28-11-2019 20:33  

Отключить всю рекламу на сайте

    Дорогой пользователь! Огромная просьба, поблагодарите релизера, оцените раздачу и оставьте свои комментарий, если Вы скачали Тьма: Вторжение через торрент бесплатно! Внесите свою лепту в развитие PiratBit!
    Комментировать посты могут только пользователи прошедшие не сложную регистрацию
    Показать сообщения:    

    Тьма: Вторжение через торрент
    Скачать бесплатно Тьма: Вторжение
    Тьма: Вторжение скачать торрент
    Тьма: Вторжение смотреть онлайн
    Cкачать фильм Тьма: Вторжение бесплатно
    Тьма: Вторжение скачать торрент в хорошем качестве
    Тьма: Вторжение смотреть онлайн бесплатно в хорошем качестве


    Вы не можете начинать темы
    Вы не можете отвечать на сообщения
    Вы не можете редактировать свои сообщения
    Вы не можете удалять свои сообщения
    Вы не можете голосовать в опросах
    Вы не можете прикреплять файлы к сообщениям
    Вы можете скачивать файлы