Ссылка на приватное зеркало нашего сайта всего за 1$. Внимание количество ограничено!!!

2 сезон

iTunes

1 сезон

1

2 сезон

2 сезон

iTunes

1 сезон

RePack

30

Новинка

ВАЖНО

ИГРА 18+

pack

RePack

MK11
pack

Забери бонус

RePack

jed

!!Акция!!

Alien_Rage

RePack

fifa19

RePack

Assassins Creed: Odyssey

RePack

NEED FOR SPEED™ PAYBACK

4 сезон

9 сезон

Бесстыжие 9 сезон

Все сериалы

все сериалы на PB.wtf

RePack

FAR CRY 5
  

10 минут спустя / Обратный отсчёт / 10 Minutes Gone (Брайан А. Миллер) [2019, Боевик, триллер, криминал, детектив, BDRip-AVC] [Расширенная версия] [DUB] [iTunes] от MediaBit piratbit.pw

10 минут спустя через торрент piratbit.pw

Размер: 746 MB | Добавлен: 2 мес. 8 д. назад | Торрент скачан:29 раз
Скачать  

22-09-2020 12:37 10 минут спустя Скачать торрент  


10 минут спустя / Обратный отсчёт / 10 Minutes Gone
Информация о фильме:
Название: 10 минут спустя / Обратный отсчёт
Оригинальное название: 10 Minutes Gone
Год выхода: 2019
Жанр: Боевик, триллер, криминал, детектив
Режиссер: Брайан А. Миллер

В ролях: Брюс Уиллис, Майкл Чиклис, Медоу Уильямс, Кайл Шмид, Тексас Бэттл, Лидия Халл, Свен Теммел, Джон Д. Хикман, Серхио Риццуто, Джеффри М. Ривз

Описание: У грабителя-эксперта Фрэнка Салливана никогда не было проблем с работой, пока его брата не убили во время ограбления. После потери сознания Фрэнк просыпается на грязной аллее, не помня, почему ограбление сорвалось и кто застрелил его брата. Для босса Фрэнка, лорда Рекса, все это не имеет значения. Ему нужна добыча, которая была упущена. Теперь Фрэнк должен выяснить, кто из членов команды предал их и найти таинственный портфель, чтобы спасти свою собственную шкуру и отомстить за смерть брата.

rating

Страна: Канада, США
Студия: Emmett / Furla / Oasis Films (EFO Films), MoviePass Films, Potato Eater Productions See
Продолжительность: 01:36:13
Перевод: Дублированный - iTunes



Информация о файле:
Кодек: AVC
Формат: MKV
Качество: BDRip-AVC
Видео: MPEG-4 AVC, 720x390 (1.85:1), 23.976 fps, 991 kbps, 0.147
Аудио RU: ACC-HE, 2 ch, 48 kHz, 96 kbps

x264 info: frame I:1205 Avg QP:15.51 size: 33582
x264 info: frame P:37815 Avg QP:19.36 size: 10154
x264 info: frame B:99414 Avg QP:21.67 size: 2886
x264 info: consecutive B-frames: 4.8% 6.1% 15.4% 30.1% 17.9% 21.7% 2.4% 0.6% 0.3% 0.3% 0.1% 0.1% 0.3%
General
Unique ID : 216785781900413180467286760083150013017 (0xA3176C426252D5A71FC9E3ED3CD70259)
Complete name : D:uTorrent10 Minutes Gone 2019 from wolf1245 & MediaBit.mkv
Format : Matroska
Format version : Version 4
File size : 746 MiB
Duration : 1 h 36 min
Overall bit rate : 1 083 kb/s
Movie name : 10 Minutes Gone 2019 from wolf1245 & MediaBit
Encoded date : UTC 2020-09-22 12:20:20
Writing application : mkvmerge v50.0.0 ('Awakenings') 64-bit
Writing library : libebml v1.4.0 + libmatroska v1.6.2

Video
ID : 1
Format : AVC
Format/Info : Advanced Video Codec
Format profile : High@L4.1
Format settings : CABAC / 12 Ref Frames
Format settings, CABAC : Yes
Format settings, Reference frames : 12 frames
Codec ID : V_MPEG4/ISO/AVC
Duration : 1 h 36 min
Bit rate : 991 kb/s
Width : 720 pixels
Height : 390 pixels
Display aspect ratio : 1.85:1
Frame rate mode : Constant
Frame rate : 23.976 (24000/1001) FPS
Color space : YUV
Chroma subsampling : 4:2:0
Bit depth : 8 bits
Scan type : Progressive
Bits/(Pixel*Frame) : 0.147
Stream size : 678 MiB (91%)
Title : wolf1245 & MediaBit
Writing library : x264 core 157 r2958 57baac4
Encoding settings : cabac=1 / ref=12 / deblock=1:-3:-3 / analyse=0x3:0x133 / me=umh / subme=11 / psy=1 / psy_rd=0.98:0.08 / mixed_ref=1 / me_range=48 / chroma_me=1 / trellis=2 / 8x8dct=1 / cqm=0 / deadzone=21,11 / fast_pskip=0 / chroma_qp_offset=-3 / threads=10 / lookahead_threads=2 / sliced_threads=0 / nr=0 / decimate=0 / interlaced=0 / bluray_compat=0 / constrained_intra=0 / bframes=12 / b_pyramid=2 / b_adapt=2 / b_bias=0 / direct=3 / weightb=1 / open_gop=0 / weightp=2 / keyint=240 / keyint_min=24 / scenecut=40 / intra_refresh=0 / rc_lookahead=60 / rc=2pass / mbtree=0 / bitrate=991 / ratetol=1.0 / qcomp=0.60 / qpmin=0 / qpmax=69 / qpstep=4 / cplxblur=20.0 / qblur=0.5 / vbv_maxrate=50000 / vbv_bufsize=62500 / nal_hrd=none / filler=0 / ip_ratio=1.40 / pb_ratio=1.30 / aq=1:1.00
Language : English
Default : Yes
Forced : No

Audio
ID : 2
Format : AAC LC SBR
Format/Info : Advanced Audio Codec Low Complexity with Spectral Band Replication
Commercial name : HE-AAC
Format settings : Implicit
Codec ID : A_AAC-2
Duration : 1 h 35 min
Bit rate : 96.0 kb/s
Channel(s) : 2 channels
Channel layout : L R
Sampling rate : 48.0 kHz
Frame rate : 23.438 FPS (2048 SPF)
Compression mode : Lossy
Stream size : 65.9 MiB (9%)
Title : Dub | iTunes
Language : Russian
Default : Yes
Forced : No

Menu
00:00:00.000 : :Глава 01
00:05:44.636 : :Глава 02
00:13:23.261 : :Глава 03
00:16:46.005 : :Глава 04
00:26:08.317 : :Глава 05
00:36:05.747 : :Глава 06
00:47:07.450 : :Глава 07
00:54:30.392 : :Глава 08
00:59:47.417 : :Глава 09
01:11:01.381 : :Глава 10
01:22:52.759 : :Глава 11
01:31:52.507 : :Глава 12
Релиз от: &
piratbit.pw



Скачать 10 минут спустя через торрент https://c.radikal.ru/c18/2009/cb/5d78899068c6.jpg Скачать фильм 10 минут спустя через торрент бесплантно в хорошем качестве Описание: У грабителя-эксперта Фрэнка Салливана никогда не было проблем с работой, пока его брата не убили во время ограбления. После ... 10 10 1
Торрент: Зарегистрирован [2020-09-22 12:37] · скачан: 29 раз
Статус: √ проверено
Размер: 746 MB
Как cкачать? Как скачать 10 минут спустя через торрент | qTorrent

28-11-2019 20:33  

Отключить всю рекламу на сайте

    Дорогой пользователь! Огромная просьба, поблагодарите релизера, оцените раздачу и оставьте свои комментарий, если Вы скачали 10 минут спустя через торрент бесплатно! Внесите свою лепту в развитие PiratBit!
    Комментировать посты могут только пользователи прошедшие не сложную регистрацию
    Показать сообщения:    

    10 минут спустя через торрент
    Скачать бесплатно 10 минут спустя
    10 минут спустя скачать торрент
    10 минут спустя смотреть онлайн
    Cкачать фильм 10 минут спустя бесплатно
    10 минут спустя скачать торрент в хорошем качестве
    10 минут спустя смотреть онлайн бесплатно в хорошем качестве


    Вы не можете начинать темы
    Вы не можете отвечать на сообщения
    Вы не можете редактировать свои сообщения
    Вы не можете удалять свои сообщения
    Вы не можете голосовать в опросах
    Вы не можете прикреплять файлы к сообщениям
    Вы можете скачивать файлы