Ссылка на приватное зеркало нашего сайта всего за 1$. Внимание количество ограничено!!!

2 сезон

iTunes

1 сезон

1

2 сезон

2 сезон

iTunes

1 сезон

RePack

30

Ultimate

ВАЖНО

ИГРА 18+

pack

RePack

MK11
pack

Забери бонус

RePack

jed

!!Акция!!

Alien_Rage

RePack

fifa19

RePack

Assassins Creed: Odyssey

RePack

NEED FOR SPEED™ PAYBACK

4 сезон

9 сезон

Бесстыжие 9 сезон

Все сериалы

все сериалы на PB.wtf

RePack

FAR CRY 5
  

Перегрузка / G-Loc (Том Пейтон) [2020, Фантастика, WEB-DLRip-AVC] [MVO] [@MUZOBOZ@] от MediaBit piratbit.pw

Перегрузка через торрент piratbit.pw

Раздают: 9 [ 0 KB/s ]
Размер: 2.36 GB | Добавлен: 2 мес. 2 д. назад | Торрент скачан:363 раза
Скачать  

21-09-2020 17:16 Перегрузка Скачать торрент  


Перегрузка / G-Loc
Информация о фильме:
Название: Перегрузка
Оригинальное название: G-Loc
Год выхода: 2020
Жанр: Фантастика
Режиссер: Том Пейтон
В ролях: Стивен Мойер, Тала Гувейя, Каспер Ван Дин, Эмили Хэй, Тоби Осмонд, Шэйн Уорд, Алана Уоллес, Майк Бэкингэм, Джон Рис-Дэвис, Спенсер Коллингс

Описание: В недалёком будущем, когда Земля оказывается на пороге нового ледникового периода, а человечество - на грани выживания, на земной орбите появляется загадочный портал в другую солнечную систему, где существует пригодная для жизни планета Рейя. Первые переселенцы успешно колонизируют её, но воспользовавшись временной разницей и выгодными условиями, совершают технологический прорыв и закрывают путь для последующих полётов, обрекая остатки человечества на медленное вымирание. Фильм повествует историю Брана Маршалла - одного из миллионов беженцев, которые пытаются тайно пробраться на спасительную планету. Однако на подлёте его корабль сбивают, и он начинает медленно дрейфовать в открытый космос. Потеряв надежду, он уже начинает готовиться к смерти, когда внезапно судьба дарит ему неожиданный шанс.

rating

Страна: Великобритания
Студия: Goldfinch, Highfield Grange Studios
Продолжительность: 01:33:01
Перевод: Любительский (многоголосый, закадровый) - @MUZOBOZ@



Информация о файле:
Кодек: AVC
Формат: MKV
Качество: WEB-DLRip-AVC
Видео: MPEG-4 AVC, 1024x436 (2.35:1), 2 999 kb/s, 23.976 fps, 0.280
Аудио RU: AC3, 2 ch, 48 kHz, 192 kbps
Аудио EN: AC3, 6 ch, 48 kHz, 448 kbps
Субтитры: Английские

General
Unique ID : 274004346339498661355427541819799921310 (0xCE23514B018272F3E3ADAADAF498629E)
Complete name : D:uTorrentРипы_от_wolf1245_MediaBitG-Loc (2020)_wolf1245 & MediaBit.mkv
Format : Matroska
Format version : Version 4
File size : 2.36 GiB
Duration : 1 h 33 min
Overall bit rate : 3 637 kb/s
Movie name : G-Loc (2020) from wolf1245 & MediaBit
Encoded date : UTC 2020-09-21 17:02:29
Writing application : mkvmerge v50.0.0 ('Awakenings') 64-bit
Writing library : libebml v1.4.0 + libmatroska v1.6.2

Video
ID : 1
Format : AVC
Format/Info : Advanced Video Codec
Format profile : High@L4.1
Format settings : CABAC / 12 Ref Frames
Format settings, CABAC : Yes
Format settings, Reference frames : 12 frames
Codec ID : V_MPEG4/ISO/AVC
Duration : 1 h 33 min
Bit rate : 2 999 kb/s
Width : 1 024 pixels
Height : 436 pixels
Display aspect ratio : 2.35:1
Frame rate mode : Constant
Frame rate : 23.976 (24000/1001) FPS
Color space : YUV
Chroma subsampling : 4:2:0
Bit depth : 8 bits
Scan type : Progressive
Bits/(Pixel*Frame) : 0.280
Stream size : 1.95 GiB (82%)
Title : wolf1245 & MediaBit
Writing library : x264 core 157 r2958 57baac4
Encoding settings : cabac=1 / ref=12 / deblock=1:-3:-3 / analyse=0x3:0x133 / me=umh / subme=11 / psy=1 / psy_rd=1.00:0.10 / mixed_ref=1 / me_range=48 / chroma_me=1 / trellis=2 / 8x8dct=1 / cqm=0 / deadzone=21,10 / fast_pskip=0 / chroma_qp_offset=-3 / threads=10 / lookahead_threads=2 / sliced_threads=0 / nr=0 / decimate=0 / interlaced=0 / bluray_compat=0 / constrained_intra=0 / bframes=12 / b_pyramid=2 / b_adapt=2 / b_bias=0 / direct=3 / weightb=1 / open_gop=0 / weightp=2 / keyint=240 / keyint_min=24 / scenecut=40 / intra_refresh=0 / rc_lookahead=60 / rc=2pass / mbtree=0 / bitrate=2999 / ratetol=1.0 / qcomp=0.60 / qpmin=0 / qpmax=69 / qpstep=4 / cplxblur=20.0 / qblur=0.5 / vbv_maxrate=50000 / vbv_bufsize=62500 / nal_hrd=none / filler=0 / ip_ratio=1.40 / pb_ratio=1.30 / aq=3:1.00
Language : English
Default : Yes
Forced : No
Color range : Limited
Color primaries : BT.709
Transfer characteristics : BT.709
Matrix coefficients : BT.709

Audio #1
ID : 2
Format : AC-3
Format/Info : Audio Coding 3
Commercial name : Dolby Digital
Codec ID : A_AC3
Duration : 1 h 33 min
Bit rate mode : Constant
Bit rate : 192 kb/s
Channel(s) : 2 channels
Channel layout : L R
Sampling rate : 48.0 kHz
Frame rate : 31.250 FPS (1536 SPF)
Compression mode : Lossy
Stream size : 128 MiB (5%)
Title : MVO [@MUZOBOZ@] MediaBit
Language : Russian
Service kind : Complete Main
Default : Yes
Forced : No

Audio #2
ID : 3
Format : AC-3
Format/Info : Audio Coding 3
Commercial name : Dolby Digital
Codec ID : A_AC3
Duration : 1 h 33 min
Bit rate mode : Constant
Bit rate : 448 kb/s
Channel(s) : 6 channels
Channel layout : L R C LFE Ls Rs
Sampling rate : 48.0 kHz
Frame rate : 31.250 FPS (1536 SPF)
Compression mode : Lossy
Stream size : 298 MiB (12%)
Title : ORIGINAL
Language : English
Service kind : Complete Main
Default : No
Forced : No

Text #1
ID : 4
Format : UTF-8
Codec ID : S_TEXT/UTF8
Codec ID/Info : UTF-8 Plain Text
Duration : 1 h 27 min
Bit rate : 47 b/s
Count of elements : 921
Stream size : 30.1 KiB (0%)
Language : English
Default : No
Forced : No

Text #2
ID : 5
Format : UTF-8
Codec ID : S_TEXT/UTF8
Codec ID/Info : UTF-8 Plain Text
Duration : 1 h 27 min
Bit rate : 53 b/s
Count of elements : 1112
Stream size : 34.5 KiB (0%)
Title : SDH
Language : English
Default : No
Forced : No
Релиз от: &
piratbit.pw



Скачать Перегрузка через торрент https://c.radikal.ru/c29/2009/11/88a9081b0bf2.jpg Скачать фильм Перегрузка через торрент бесплантно в хорошем качестве Описание: В недалёком будущем, когда Земля оказывается на пороге нового ледникового периода, а человечество - на грани выживания, на ... 9.7 10 7
Торрент: Зарегистрирован [2020-09-21 17:16] · скачан: 363 раз
Статус: T временная
Размер: 2.36 GB
Как cкачать? Как скачать Перегрузка через торрент | qTorrent

28-11-2019 20:33  

Отключить всю рекламу на сайте

22-09-2020 13:38 Перегрузка Скачать торрент  

знакомый сюжет..сериал есть на эту темуpiratbit.pw



23-09-2020 16:29 Перегрузка Скачать торрент  

куча ляпов, притом тупых. понятно что научной фантастики не ожидать, говорят что гравитация на земле в 6 раз больше и тут же он ей в тыкву дает и она встает! представьте что вас ударил такой же как вы но в 6 раз сильнее..piratbit.pw



23-09-2020 16:32 Перегрузка Скачать торрент  

Че скрины не открываются?
На постере справа это Бекка из "Сотни"? Пожалуй гляну кинцо!

Народ, это жесть какая блевота, даже мимо проходить стремно, а я еще посмотрел... Не вздумайте ЭТО жлвоафдлвьсфлвао, качать!piratbit.pw



28-09-2020 18:23 Перегрузка Скачать торрент  

Reanimus писал(а):

Че скрины не открываются?
На постере справа это Бекка из "Сотни"? Пожалуй гляну кинцо!

Народ, это жесть какая блевота, даже мимо проходить стремно, а я еще посмотрел... Не вздумайте ЭТО жлвоафдлвьсфлвао, качать!

Не, это не она.piratbit.pw



    Дорогой пользователь! Огромная просьба, поблагодарите релизера, оцените раздачу и оставьте свои комментарий, если Вы скачали Перегрузка через торрент бесплатно! Внесите свою лепту в развитие PiratBit!
    Комментировать посты могут только пользователи прошедшие не сложную регистрацию
    Показать сообщения:    

    Перегрузка через торрент
    Скачать бесплатно Перегрузка
    Перегрузка скачать торрент
    Перегрузка смотреть онлайн
    Cкачать фильм Перегрузка бесплатно
    Перегрузка скачать торрент в хорошем качестве
    Перегрузка смотреть онлайн бесплатно в хорошем качестве


    Вы не можете начинать темы
    Вы не можете отвечать на сообщения
    Вы не можете редактировать свои сообщения
    Вы не можете удалять свои сообщения
    Вы не можете голосовать в опросах
    Вы не можете прикреплять файлы к сообщениям
    Вы можете скачивать файлы