Ссылка на приватное зеркало нашего сайта всего за 1$. Внимание количество ограничено!!!

2 сезон

iTunes

1 сезон

1

2 сезон

2 сезон

iTunes

1 сезон

RePack

30

Ultimate

ВАЖНО

ИГРА 18+

pack

RePack

MK11
pack

Забери бонус

RePack

jed

!!Акция!!

Alien_Rage

RePack

fifa19

RePack

Assassins Creed: Odyssey

RePack

NEED FOR SPEED™ PAYBACK

4 сезон

9 сезон

Бесстыжие 9 сезон

Все сериалы

все сериалы на PB.wtf

RePack

FAR CRY 5
  

Дьявол всегда здесь / The Devil All the Time (Антонио Кампос) [2020, Триллер, драма, криминал, WEB-DLRip-AVC] MVO [HDRezka Studio] piratbit.pw

Дьявол всегда здесь через торрент piratbit.pw

Раздают: 7 [ 159 KB/s ] Качают: 1 [ 737 KB/s ]
Размер: 2.17 GB | Добавлен: 2 мес. 5 д. назад | Торрент скачан:269 раз
Скачать  

20-09-2020 17:04 Дьявол всегда здесь Скачать торрент  

Дьявол всегда здесь | The Devil All the Time
Год выпуска: 2020
Страна: США
Студия: Nine Stories Productions
Жанр: Триллер, драма, криминал
Продолжительность: 02:18:53
Перевод: Профессиональный (многоголосый) | HDRezka Studio
Субтитры: Русские (форсированные, полные)

Режиссер: Антонио Кампос

rating

В ролях: Том Холланд (II), Роберт Паттинсон, Билл Скарсгард, Хейли Беннетт, Райли Кио, Гарри Меллинг, Себастьян Стэн, Миа Васиковска, Элайза Сканлен, Джейсон Кларк

Описание: Молодой Уиллард Рассел возвращается с полей боёв Второй мировой и с первого взгляда влюбляется в работницу кафе Шарлотту. В этом же заведении находят друг друга фотограф-любитель Карл и официантка Сэнди. Хотя мать Уилларда активно сватает сыну местную сироту Хэлен, парень не может выкинуть из головы Шарлотту - влюблённые женятся, и у них рождается сын Арвин. Хэлен же не может противостоять харизме проповедника Роя, выходит за него замуж, и на свет появляется девочка Ленора. Вскоре судьбы молодых семей обернутся самым трагичным образом, а дети станут сводными братом и сестрой в доме матери Уилларда.

Качество: WEB-DLRip-AVC
Формат: MKV

Видео: 1024x428 (2.40:1), 24 fps, MPEG-4 AVC ~ 1796 Kbps avg, 0.171 bit/pixel
Аудио: AC3, 48 kHz, 6 ch, ~448.00 kbps avg | русский | HDrezka Studio
скриншот  скриншот  скриншот  скриншот  скриншот  

Общее
Уникальный идентификатор : 33843900457697295251122080680612270577 (0x1976191F3865BE0C4E37AF209C4111F1)
Полное имя : The.Devil.All.The.Time.2020.WEB-DLRip.2.18Gb.x264.mkv
Формат : Matroska
Версия формата : Version 4
Размер файла : 2,17 Гбайт
Продолжительность : 2 ч. 18 м.
Общий поток : 2 240 Кбит/сек
Название фильма : Дьявол всегда здесь / The Devil All the Time (2020)
Дата кодирования : UTC 2020-09-20 11:37:31
Программа кодирования : mkvmerge v47.0.0 ('Black Flag') 64-bit
Библиотека кодирования : libebml v1.3.10 + libmatroska v1.5.2
Обложка : Yes
Attachments : cover.jpg

Видео
Идентификатор : 1
Формат : AVC
Формат/Информация : Advanced Video Codec
Профиль формата : High@L4.1
Настройки формата : CABAC / 10 Ref Frames
Параметр CABAC формата : Да
Параметр RefFrames формата : 10 кадров
Идентификатор кодека : V_MPEG4/ISO/AVC
Продолжительность : 2 ч. 18 м.
Битрейт : 1 796 Кбит/сек
Ширина : 1 024 пикселя
Высота : 428 пикселей
Соотношение сторон : 2,40:1
Режим частоты кадров : Постоянный
Частота кадров : 24,000 кадра/сек
Цветовое пространство : YUV
Субдискретизация насыщенности : 4:2:0
Битовая глубина : 8 бит
Тип развёртки : Прогрессивная
Бит/(Пиксели*Кадры) : 0.171
Размер потока : 1,74 Гбайт (80%)
Заголовок : #stillet
Библиотека кодирования : x264 core 152 r2851bm ba24899
Настройки программы : cabac=1 / ref=10 / deblock=1:-2:-2 / analyse=0x3:0x113 / me=umh / subme=10 / psy=1 / psy_rd=1.00:0.15 / mixed_ref=1 / me_range=32 / chroma_me=1 / trellis=2 / 8x8dct=1 / cqm=0 / deadzone=21,11 / fast_pskip=0 / chroma_qp_offset=-3 / threads=8 / lookahead_threads=3 / sliced_threads=0 / nr=0 / decimate=0 / interlaced=0 / bluray_compat=0 / constrained_intra=0 / bframes=9 / b_pyramid=2 / b_adapt=2 / b_bias=0 / direct=3 / weightb=1 / open_gop=0 / weightp=2 / keyint=240 / keyint_min=23 / scenecut=40 / intra_refresh=0 / rc=2pass / mbtree=0 / bitrate=1796 / ratetol=1.0 / qcomp=0.60 / qpmin=0 / qpmax=69 / qpstep=4 / cplxblur=20.0 / qblur=0.5 / ip_ratio=1.40 / pb_ratio=1.30 / aq=1:1.00
Язык : English
Default : Да
Forced : Нет

Аудио
Идентификатор : 2
Формат : AC-3
Формат/Информация : Audio Coding 3
Коммерческое название : Dolby Digital
Идентификатор кодека : A_AC3
Продолжительность : 2 ч. 18 м.
Вид битрейта : Постоянный
Битрейт : 448 Кбит/сек
Каналы : 6 каналов
Channel layout : L R C LFE Ls Rs
Частота : 48,0 КГц
Частота кадров : 31,250 кадров/сек (1536 SPF)
Метод сжатия : С потерями
Размер потока : 445 Мбайт (20%)
Заголовок : MVO | HDRezka Studio
Язык : Russian
Service kind : Complete Main
Default : Да
Forced : Да

Текст #1
Идентификатор : 3
Формат : UTF-8
Идентификатор кодека : S_TEXT/UTF8
Идентификатор кодека/Информация : UTF-8 Plain Text
Продолжительность : 2 ч. 10 м.
Битрейт : 2 бит/сек
Count of elements : 39
Размер потока : 1,96 Кбайт (0%)
Заголовок : Forced
Язык : Russian
Default : Да
Forced : Да

Текст #2
Идентификатор : 4
Формат : UTF-8
Идентификатор кодека : S_TEXT/UTF8
Идентификатор кодека/Информация : UTF-8 Plain Text
Продолжительность : 2 ч. 11 м.
Битрейт : 79 бит/сек
Count of elements : 1648
Размер потока : 76,7 Кбайт (0%)
Заголовок : Full
Язык : Russian
Default : Нет
Forced : Нет

piratbit.pw



Скачать Дьявол всегда здесь через торрент https://i112.fastpic.ru/big/2020/0920/31/e077a12ed5aa694a00fa1b38aa15f631.jpg Скачать фильм Дьявол всегда здесь через торрент бесплантно в хорошем качестве Описание: Молодой Уиллард Рассел возвращается с полей боёв Второй мировой и с первого взгляда влюбляется в работницу кафе Шарлотту. В этом ... 10 10 7
Торрент: Зарегистрирован [2020-09-20 17:04] · скачан: 269 раз
Статус: √ проверено
Размер: 2.17 GB
Как cкачать? Как скачать Дьявол всегда здесь через торрент | qTorrent

% Раздел Тема Автор DL S | L
Фильмы 2019-2020 [DVDrip, WEB-DLRip, HDrip] (DUB, MVO) [ 1.86 GB ] Дьявол всегда здесь / The Devil All the Time [2020 WEB-DLRip-AVC] [MVO] [NewComers] от MediaBit Lithuania Скачать
4 | 0
Фильмы (WEB-DL 720p, 1080p) [ 8.38 GB ] Дьявол всегда здесь / The Devil All the Time [2020 WEB-DL 1080p] MVO [HDRezka Studio] bober100 Скачать
4 | 0
Фильмы 2019-2020 [DVDrip, WEB-DLRip, HDrip] (DUB, MVO) [ 1.46 GB ] Дьявол всегда здесь / The Devil All the Time [2020 WEB-DLRip] MVO [HDRezka Studio] bober100 Скачать
4 | 0
Фильмы 2019-2020 [DVDrip, WEB-DLRip, HDrip] (DUB, MVO) [ 2.18 GB ] Дьявол всегда здесь / The Devil All the Time [2020 WEB-DLRip] [MVO] killermax2013 Скачать
2 | 0
Фильмы (WEB-DL 720p, 1080p) [ 4.24 GB ] Дьявол всегда здесь / The Devil All the Time [2020 WEB-DL 720p] MVO [NewComers] bober100 Скачать
4 | 0
Фильмы (WEB-DL 720p, 1080p) [ 7.64 GB ] Дьявол всегда здесь / The Devil All the Time [2020 WEB-DL 1080p] MVO [NewComers] bober100 Скачать
9 | 0

28-11-2019 20:33  

Отключить всю рекламу на сайте

    Дорогой пользователь! Огромная просьба, поблагодарите релизера, оцените раздачу и оставьте свои комментарий, если Вы скачали Дьявол всегда здесь через торрент бесплатно! Внесите свою лепту в развитие PiratBit!
    Комментировать посты могут только пользователи прошедшие не сложную регистрацию
    Показать сообщения:    

    Дьявол всегда здесь через торрент
    Скачать бесплатно Дьявол всегда здесь
    Дьявол всегда здесь скачать торрент
    Дьявол всегда здесь смотреть онлайн
    Cкачать фильм Дьявол всегда здесь бесплатно
    Дьявол всегда здесь скачать торрент в хорошем качестве
    Дьявол всегда здесь смотреть онлайн бесплатно в хорошем качестве


    Вы не можете начинать темы
    Вы не можете отвечать на сообщения
    Вы не можете редактировать свои сообщения
    Вы не можете удалять свои сообщения
    Вы не можете голосовать в опросах
    Вы не можете прикреплять файлы к сообщениям
    Вы можете скачивать файлы