1 сезон

1 сезон

iTunes

1

КиноПоиск HD

Кинопоиск HD

iTunes

13

1 сезон

RePack

30

Новинка

ВАЖНО

ИГРА 18+

pack

RePack

MK11
pack

Легкие деньги

RePack

jed

RePack

fifa19

RePack

RDR2

RePack

NEED FOR SPEED™ PAYBACK

4 сезон

9 сезон

Бесстыжие 9 сезон

Все сериалы

все сериалы на PB.wtf

RePack

FAR CRY 5
  
Magnet ссылка

Славные парни / Goodfellas (Мартин Скорсезе) [1990, Драма, криминал, биография, BDRip] [AVO] (Goblin) piratbit.pw

Славные парни через торрент piratbit.pw

Размер: 2.9 GB | Добавлен: 7 мес. назад | Торрент скачан:34 раза
Скачать  

20-09-2020 08:01 Славные парни Скачать торрент  

Славные парни / Goodfellas«Тридцать лет из жизни мафии»

Год выхода: 1990
Страна: США
Жанр: Драма, криминал, биография
Продолжительность: 02:25:20
Перевод: Авторский (одноголосый, закадровый) // Дмитрий "Goblin" Пучков
Субтитры: Русские, Английские.

Режиссер: Мартин Скорсезе / Martin Scorsese

В ролях: Роберт Де Ниро, Рэй Лиотта, Джо Пеши, Лоррэйн Бракко, Пол Сорвино, Чак Лоу, Frank DiLeo, Фрэнк Сиверо, Тони Дарроу, Майк Старр, Фрэнк Винсент

О фильме: История о Генри Хилле — начинающем гангстере, занимающемся грабежами вместе с подельниками Джими Конвеем и Томми Де Вито, которые с легкостью убивают любого, кто встаёт у них на пути.

rating

Автор рипа: HRIME

Сэмпл: скачать

Качество: BDRip
Формат: AVI
Видео: 704x400 (1.76:1), 23.976 fps, XviD MPEG-4 ~1956 kbps avg, 0.29 bit/pixel
Аудио #1: RUS 48 kHz, AC3 Dolby Digital, 3/2 (L,C,R,l,r) + LFE ch, ~448 kbps
Аудио #2: ENG 48 kHz, AC3 Dolby Digital, 3/2 (L,C,R,l,r) + LFE ch, ~448 kbps
Формат субтитров: softsub (SRT)

скриншот  скриншот  скриншот  

Код:

Общее
Полное имя                               : Slavnye.Parni.1990.DUAL.BDRip.XviD.AC3.-HRIME.avi
Формат                                   : AVI
Формат/Информация                        : Audio Video Interleave
Профиль формата                          : OpenDML
Размер файла                             : 2,90 Гбайт
Продолжительность                        : 2 ч. 25 м.
Общий поток                              : 2 860 Кбит/сек
Название фильма                          : Goodfellas.1990.Martin.Scorsese
Программа кодирования                    : VirtualDubMod 1.5.10.2 (build 2540/release)
Формат оригинала/Имя                     : Movie
Примечание                               : 03.09.2020

Видео
Идентификатор                            : 0
Формат                                   : MPEG-4 Visual
Профиль формата                          : Advanced Simple@L5
Настройки формата                        : BVOP1 / Custom Matrix
Параметр BVOP формата                    : 1
Параметр QPel формата                    : Нет
Параметр GMC формата                     : Без точки перехода
Параметр матрицы формата                 : Выборочная
Идентификатор кодека                     : XVID
Идентификатор кодека/Подсказка           : XviD
Продолжительность                        : 2 ч. 25 м.
Битрейт                                  : 1 948 Кбит/сек
Ширина                                   : 704 пикселя
Высота                                   : 400 пикселей
Соотношение сторон                       : 16:9
Частота кадров                           : 23,976 (24000/1001) кадра/сек
Цветовое пространство                    : YUV
Субдискретизация насыщенности            : 4:2:0
Битовая глубина                          : 8 бит
Тип развёртки                            : Прогрессивная
Метод сжатия                             : С потерями
Бит/(Пиксели*Кадры)                      : 0.288
Размер потока                            : 1,98 Гбайт (68%)
Библиотека кодирования                   : XviD 69

Аудио #1
Идентификатор                            : 1
Формат                                   : AC-3
Формат/Информация                        : Audio Coding 3
Коммерческое название                    : Dolby Digital
Идентификатор кодека                     : 2000
Продолжительность                        : 2 ч. 25 м.
Вид битрейта                             : Постоянный
Битрейт                                  : 448 Кбит/сек
Каналы                                   : 6 каналов
Channel layout                           : L R C LFE Ls Rs
Частота                                  : 48,0 КГц
Частота кадров                           : 31,250 кадров/сек (1536 SPF)
Метод сжатия                             : С потерями
Размер потока                            : 466 Мбайт (16%)
Выравнивание                             : Разделение по промежуткам
Продолжительность промежутка             : 42  мс. (1,00 видеокадр)
Время предзагрузки промежутка            : 500  мс.
Service kind                             : Complete Main

Аудио #2
Идентификатор                            : 2
Формат                                   : AC-3
Формат/Информация                        : Audio Coding 3
Коммерческое название                    : Dolby Digital
Идентификатор кодека                     : 2000
Продолжительность                        : 2 ч. 25 м.
Вид битрейта                             : Постоянный
Битрейт                                  : 448 Кбит/сек
Каналы                                   : 6 каналов
Channel layout                           : L R C LFE Ls Rs
Частота                                  : 48,0 КГц
Частота кадров                           : 31,250 кадров/сек (1536 SPF)
Метод сжатия                             : С потерями
Размер потока                            : 466 Мбайт (16%)
Выравнивание                             : Разделение по промежуткам
Продолжительность промежутка             : 42  мс. (1,00 видеокадр)
Время предзагрузки промежутка            : 500  мс.
Service kind                             : Complete Main

Цитата:

  • За дорогу от Д. Пучкова спасибо karasidi. Содержит ненормативную лексику.

  • piratbit.pw



    Скачать Славные парни через торрент http://d.radikal.ru/d33/2009/6d/9de82609ea6c.jpg Скачать фильм Славные парни через торрент бесплантно в хорошем качестве О фильме: История о Генри Хилле — начинающем гангстере, занимающемся грабежами вместе с подельниками Джими Конвеем и Томми Де Вито, которые ... 10 10 5
    Торрент: Зарегистрирован [2020-09-20 08:01] · скачан: 34 раз
    Статус: √ проверено
    Размер: 2.9 GB
    Как cкачать? Как скачать Славные парни через торрент | UTorrent

    % Раздел Тема Автор DL S | L
    Ultra HD (UHD: 2K, 4K, 8K) — видео сверхвысокой чёткости [ 89.31 GB ] Славные парни / Goodfellas [1990 биография UHD Blu-ray 2160p] - [] sheker187 Скачать
    1 | 0
    Фильмы до 2000 г. [ 2.91 GB ] Славные парни / Goodfellas [1990 биография BDRip] killermax2013 Скачать
    1 | 0
    Фильмы [HD 720p, 1080p] (Хороший звук DUB, MVO) [ 22.45 GB ] Славные парни / Goodfellas [1990 биография BDRip 1080p Remastered from a 4k ] 2xDUB DVO _denis_100 Скачать
    1 | 0
    Фильмы до 2000 г. [ 3.56 GB ] Славные парни / Goodfellas [1990 биография BDRip] 4x[AVO] killermax2013 Скачать
    1 | 0
    Фильмы до 2000 г. [ 2.9 GB ] Славные парни / Goodfellas [1990 биография ... BDRip] chaga2009 Скачать
    1 | 0
    Фильмы (Blu-ray, BD-Remux, HDDVD) [ 18.42 GB ] Славные парни / Goodfellas [1990 биография BDRemux 1080p] DUB Ворон Скачать
    1 | 0
    Фильмы [HD 720p, 1080p] (Хороший звук DUB, MVO) [ 6.97 GB ] Славные парни / Goodfellas [1990 биографияслова BDRip 720p лицензия] Ke$h@ Скачать
    1 | 0

    28-11-2019 20:33  

    Отключить всю рекламу на сайте

      Дорогой пользователь! Огромная просьба, поблагодарите релизера, оцените раздачу и оставьте свои комментарий, если Вы скачали Славные парни через торрент бесплатно! Внесите свою лепту в развитие PiratBit!
      Комментировать посты могут только пользователи прошедшие не сложную регистрацию
      Показать сообщения:    

      Славные парни через торрент
      Скачать бесплатно Славные парни
      Славные парни скачать торрент
      Славные парни смотреть онлайн
      Cкачать фильм Славные парни бесплатно
      Славные парни скачать торрент в хорошем качестве
      Славные парни смотреть онлайн бесплатно в хорошем качестве


      Вы не можете начинать темы
      Вы не можете отвечать на сообщения
      Вы не можете редактировать свои сообщения
      Вы не можете удалять свои сообщения
      Вы не можете голосовать в опросах
      Вы не можете прикреплять файлы к сообщениям
      Вы можете скачивать файлы