Ссылка на приватное зеркало нашего сайта всего за 1$. Внимание количество ограничено!!!

2 сезон

iTunes

1 сезон

1

2 сезон

2 сезон

iTunes

1 сезон

RePack

30

Ultimate

ВАЖНО

ИГРА 18+

pack

RePack

MK11
pack

Забери бонус

RePack

jed

!!Акция!!

Alien_Rage

RePack

fifa19

RePack

Assassins Creed: Odyssey

RePack

NEED FOR SPEED™ PAYBACK

4 сезон

9 сезон

Бесстыжие 9 сезон

Все сериалы

все сериалы на PB.wtf

RePack

FAR CRY 5
  

Полное уничтожение / Hard Kill / Open Source (Мэтт Эскандари) [2020, Боевик, триллер, BDRip-AVC] DUB [iTunes] piratbit.pw

Полное уничтожение через торрент piratbit.pw

Раздают: 2 [ 0 KB/s ]
Размер: 2.13 GB | Добавлен: 2 мес. 6 д. назад | Торрент скачан:120 раз
Скачать  

18-09-2020 17:44 Полное уничтожение Скачать торрент  

Полное уничтожение | Hard Kill | Open Source
«Take on a Madman. Save the World»

Год выпуска: 2020
Страна: США
Студия: Emmett/Furla/Oasis Films (EFO Films), BondIt Media Capital, Buffalo 8 Productions
Жанр: Боевик, триллер
Продолжительность: 01:38:22
Перевод: Дублированный | iTunes
Субтитры: Английские (Full, SDH)

Режиссер: Мэтт Эскандари

rating

В ролях: Брюс Уиллис, Джесси Меткалф, Серджо Риццуто, Лорин Кент, Тексас Бэттл, Лиа Хаттон Бисмор, Джон Е. Браунли, Джавон Кэмерон, Александр Экерт, Лесли Эмметт

Описание: История миллиардера Донована Чалмерса, который является основателем и генеральным директором крупной IT-корпорации, где разрабатывается секретная компьютерная программа способная изменить мир. Мужчина ценит свое изобретение и даже для охраны нанимает группу опытных наемников, но забывает защитить собственную семью. Вскоре команда террористов похищают его дочь с целью завладеть программой и применить для теракта. Теперь у Донована остаются считанные часы, чтобы предотвратить уничтожения государства и спасти дочь...

Качество: BDRip-AVC
Формат: MKV

Видео: 1024x428 (2, 40:1), 23, 976 fps, MPEG-4 AVC ~ 2272 Kbps avg, 0.216 bit/pixel
Аудио: AC3, 48 kHz, 6 ch, ~384.00 kbps avg | русский | iTunes
Аудио: AC3, 48 kHz, 6 ch, ~448.00 kbps avg | английский | Оригинал
скриншот  скриншот  скриншот  скриншот  скриншот  

Общее
Уникальный идентификатор : 170781641734105400362509132804130983224 (0x807B5907E55D0544F2767E918421CD38)
Полное имя : Hard.Kill.2020.BDRip.2.13Gb.x264.mkv
Формат : Matroska
Версия формата : Version 4
Размер файла : 2, 13 Гбайт
Продолжительность : 1 ч. 38 м.
Общий поток : 3 104 Кбит/сек
Название фильма : Полное уничтожение / Hard Kill (2020)
Дата кодирования : UTC 2020-09-18 10:32:07
Программа кодирования : mkvmerge v47.0.0 ('Black Flag') 64-bit
Библиотека кодирования : libebml v1.3.10 + libmatroska v1.5.2
Обложка : Yes
Attachments : cover.jpg

Видео
Идентификатор : 1
Формат : AVC
Формат/Информация : Advanced Video Codec
Профиль формата : High@L4.1
Настройки формата : CABAC / 10 Ref Frames
Параметр CABAC формата : Да
Параметр RefFrames формата : 10 кадров
Идентификатор кодека : V_MPEG4/ISO/AVC
Продолжительность : 1 ч. 38 м.
Битрейт : 2 272 Кбит/сек
Ширина : 1 024 пикселя
Высота : 428 пикселей
Соотношение сторон : 2, 40:1
Режим частоты кадров : Постоянный
Частота кадров : 23, 976 (24000/1001) кадра/сек
Цветовое пространство : YUV
Субдискретизация насыщенности : 4:2:0
Битовая глубина : 8 бит
Тип развёртки : Прогрессивная
Бит/(Пиксели*Кадры) : 0.216
Размер потока : 1, 56 Гбайт (73%)
Заголовок : #stillwt
Библиотека кодирования : x264 core 152 r2851bm ba24899
Настройки программы : cabac=1 / ref=10 / deblock=1:-2:-2 / analyse=0x3:0x113 / me=umh / subme=11 / psy=1 / psy_rd=1.00:0.15 / mixed_ref=1 / me_range=32 / chroma_me=1 / trellis=2 / 8x8dct=1 / cqm=0 / deadzone=21, 11 / fast_pskip=0 / chroma_qp_offset=-3 / threads=8 / lookahead_threads=3 / sliced_threads=0 / nr=0 / decimate=0 / interlaced=0 / bluray_compat=0 / constrained_intra=0 / bframes=11 / b_pyramid=2 / b_adapt=2 / b_bias=0 / direct=3 / weightb=1 / open_gop=0 / weightp=2 / keyint=240 / keyint_min=23 / scenecut=40 / intra_refresh=0 / rc=2pass / mbtree=0 / bitrate=2272 / ratetol=1.0 / qcomp=0.60 / qpmin=0 / qpmax=69 / qpstep=4 / cplxblur=20.0 / qblur=0.5 / ip_ratio=1.40 / pb_ratio=1.30 / aq=1:1.00
Язык : English
Default : Да
Forced : Нет

Аудио #1
Идентификатор : 2
Формат : AC-3
Формат/Информация : Audio Coding 3
Коммерческое название : Dolby Digital
Идентификатор кодека : A_AC3
Продолжительность : 1 ч. 38 м.
Вид битрейта : Постоянный
Битрейт : 384 Кбит/сек
Каналы : 6 каналов
Channel layout : L R C LFE Ls Rs
Частота : 48, 0 КГц
Частота кадров : 31, 250 кадров/сек (1536 SPF)
Метод сжатия : С потерями
Размер потока : 270 Мбайт (12%)
Заголовок : iTunes
Язык : Russian
Service kind : Complete Main
Default : Да
Forced : Да

Аудио #2
Идентификатор : 3
Формат : AC-3
Формат/Информация : Audio Coding 3
Коммерческое название : Dolby Digital
Идентификатор кодека : A_AC3
Продолжительность : 1 ч. 38 м.
Вид битрейта : Постоянный
Битрейт : 448 Кбит/сек
Каналы : 6 каналов
Channel layout : L R C LFE Ls Rs
Частота : 48, 0 КГц
Частота кадров : 31, 250 кадров/сек (1536 SPF)
Метод сжатия : С потерями
Размер потока : 315 Мбайт (14%)
Язык : English
Service kind : Complete Main
Default : Нет
Forced : Нет

Текст #1
Идентификатор : 4
Формат : UTF-8
Идентификатор кодека : S_TEXT/UTF8
Идентификатор кодека/Информация : UTF-8 Plain Text
Продолжительность : 1 ч. 30 м.
Битрейт : 39 бит/сек
Count of elements : 1009
Размер потока : 26, 5 Кбайт (0%)
Заголовок : Full
Язык : English
Default : Нет
Forced : Нет

Текст #2
Идентификатор : 5
Формат : UTF-8
Идентификатор кодека : S_TEXT/UTF8
Идентификатор кодека/Информация : UTF-8 Plain Text
Продолжительность : 1 ч. 30 м.
Битрейт : 44 бит/сек
Count of elements : 1138
Размер потока : 29, 5 Кбайт (0%)
Заголовок : SDH
Язык : English
Default : Нет
Forced : Нет

Меню
00:00:00.000 : en:Chapter 01
00:16:13.597 : en:Chapter 02
00:34:51.964 : en:Chapter 03
00:53:57.776 : en:Chapter 04
01:09:15.025 : en:Chapter 05
01:30:02.522 : en:Chapter 06

piratbit.pw



Скачать Полное уничтожение через торрент https://i112.fastpic.ru/big/2020/0918/aa/10a278caa1fdc77ba3b697c23bd268aa.jpg Скачать фильм Полное уничтожение через торрент бесплантно в хорошем качестве Описание: История миллиардера Донована Чалмерса, который является основателем и генеральным директором крупной IT-корпорации, где ... 10 10 5
Торрент: Зарегистрирован [2020-09-18 17:44] · скачан: 120 раз
Статус: √ проверено
Размер: 2.13 GB
Как cкачать? Как скачать Полное уничтожение через торрент | qTorrent

% Раздел Тема Автор DL S | L
Фильмы 2019-2020 [DVDrip, WEB-DLRip, HDrip] (DUB, MVO) [ 1.42 GB ] Полное уничтожение / Hard Kill / Open Source [2020 BDRip] - Twi7ter Скачать
31 | 1
Фильмы [HD 720p, 1080p] (Хороший звук DUB, MVO) [ 9.58 GB ] Полное уничтожение / Hard Kill / Open Source [2020 BDRip 1080p] bober100 Скачать
3 | 0
Фильмы 2019-2020 [DVDrip, WEB-DLRip, HDrip] (DUB, MVO) [ 746 MB ] Полное уничтожение / Hard Kill / Open Source [2020 HDRip] bober100 Скачать
3 | 0
Фильмы 2019-2020 [DVDrip, WEB-DLRip, HDrip] (DUB, MVO) [ 1.46 GB ] Полное уничтожение / Hard Kill / Open Source [2020 BDRip] bober100 Скачать
2 | 0
Фильмы 2019-2020 [DVDrip, WEB-DLRip, HDrip] (DUB, MVO) [ 1.41 GB ] Полное уничтожение / Hard Kill / Open Source [2020 BDRip-AVC] bober100 Скачать
2 | 0
Фильмы (Blu-ray, BD-Remux, HDDVD) [ 17.29 GB ] Полное уничтожение / Hard Kill / Open Source [2020 BD Remux 1080p] bober100 Скачать
1 | 0

28-11-2019 20:33  

Отключить всю рекламу на сайте

19-09-2020 15:49 Полное уничтожение Скачать торрент  

Ааа Брюс в фильмах 2020-го года, проходим мимо ))piratbit.pw



    Дорогой пользователь! Огромная просьба, поблагодарите релизера, оцените раздачу и оставьте свои комментарий, если Вы скачали Полное уничтожение через торрент бесплатно! Внесите свою лепту в развитие PiratBit!
    Комментировать посты могут только пользователи прошедшие не сложную регистрацию
    Показать сообщения:    

    Полное уничтожение через торрент
    Скачать бесплатно Полное уничтожение
    Полное уничтожение скачать торрент
    Полное уничтожение смотреть онлайн
    Cкачать фильм Полное уничтожение бесплатно
    Полное уничтожение скачать торрент в хорошем качестве
    Полное уничтожение смотреть онлайн бесплатно в хорошем качестве


    Вы не можете начинать темы
    Вы не можете отвечать на сообщения
    Вы не можете редактировать свои сообщения
    Вы не можете удалять свои сообщения
    Вы не можете голосовать в опросах
    Вы не можете прикреплять файлы к сообщениям
    Вы можете скачивать файлы