Ссылка на приватное зеркало нашего сайта всего за 1$. Внимание количество ограничено!!!

2 сезон

iTunes

1 сезон

1

2 сезон

2 сезон

iTunes

1 сезон

RePack

30

Новинка

ВАЖНО

ИГРА 18+

pack

RePack

MK11
pack

Забери бонус

RePack

jed

!!Акция!!

Alien_Rage

RePack

fifa19

RePack

Assassins Creed: Odyssey

RePack

NEED FOR SPEED™ PAYBACK

4 сезон

9 сезон

Бесстыжие 9 сезон

Все сериалы

все сериалы на PB.wtf

RePack

FAR CRY 5
  

Танцуй сердцем / Let's Dance (Ладислас Шолла) [2019, драма, комедия, музыка, BDRip-AVC] DUB (rus, ukr) [iTunes] piratbit.pw

Танцуй сердцем через торрент piratbit.pw

Размер: 2.57 GB | Добавлен: 2 мес. 10 д. назад | Торрент скачан:44 раза
Скачать  

17-09-2020 04:03 Танцуй сердцем Скачать торрент  

Танцуй сердцем | Let's Dance
Год выпуска: 2019
Страна: Франция, Бельгия
Студия: CN7 Productions, Federation Pictures
Жанр: драма, комедия, музыка
Продолжительность: 01:48:51
Перевод: Дублированный | iTunes
Субтитры: Русские (Full), английские (Full)

Режиссер: Ладислас Шолла

rating

В ролях: Райан Бенсетти, Алексия Джордано, Гийом де Тонкедек, Мехди Керкуш, Брахим Заибат, Лин Рено, Фиорелла Кампанелла, Лаура Дефретен, Николя Ушар, Магдалена Мальфрэ

Описание: Энергия танца, безудержный ритм и биение сердца - ради этого Джозеф готов отказаться от всего и отправиться на битву лучших хип-хоп танцоров планеты. В Париже он встречает Хлою, которой предстоит отбор в легендарную балетную труппу Нью-Йорка. Вместе они мечтают создать невероятное объединение стилей, которое потрясет весь мир.

Качество: BDRip-AVC
Формат: MKV

Видео: 1024x428 (2, 40:1), 23, 976 fps, MPEG-4 AVC ~ 2164 Kbps avg, 0.206 bit/pixel
Аудио #01: 48 kHz, AC3, 5.1, 384 Kbps | iTunes | RUS |
Аудио #02: 48 kHz, AC3, 5.1, 384 Kbps | iTunes | UKR |
Аудио #03: 48 kHz, AC3, 5.1, 448 Kbps | Оригинал | FRE |
скриншот  скриншот  скриншот  скриншот  

Общее
Уникальный идентификатор : 319435901713727441339336379832195861133 (0xF0511DE9602DCEC6F6F8BA47A1AFCA8D)
Полное имя : Lets.Dance.2019.BDRip.x264.mkv
Формат : Matroska
Версия формата : Version 4
Размер файла : 2, 57 Гбайт
Продолжительность : 1 ч. 48 м.
Общий поток : 3 381 Кбит/сек
Название фильма : Танцуй сердцем / Let's Dance (2019)
Дата кодирования : UTC 2020-09-16 18:41:03
Программа кодирования : mkvmerge v47.0.0 ('Black Flag') 64-bit
Библиотека кодирования : libebml v1.3.10 + libmatroska v1.5.2
Обложка : Yes
Attachments : cover.jpg

Видео
Идентификатор : 1
Формат : AVC
Формат/Информация : Advanced Video Codec
Профиль формата : High@L4.1
Настройки формата : CABAC / 10 Ref Frames
Параметр CABAC формата : Да
Параметр RefFrames формата : 10 кадров
Идентификатор кодека : V_MPEG4/ISO/AVC
Продолжительность : 1 ч. 48 м.
Битрейт : 2 164 Кбит/сек
Ширина : 1 024 пикселя
Высота : 428 пикселей
Соотношение сторон : 2, 40:1
Режим частоты кадров : Постоянный
Частота кадров : 23, 976 кадра/сек
Цветовое пространство : YUV
Субдискретизация насыщенности : 4:2:0
Битовая глубина : 8 бит
Тип развёртки : Прогрессивная
Бит/(Пиксели*Кадры) : 0.206
Размер потока : 1, 64 Гбайт (64%)
Заголовок : #stillet
Библиотека кодирования : x264 core 152 r2851bm ba24899
Настройки программы : cabac=1 / ref=10 / deblock=1:-2:-2 / analyse=0x3:0x113 / me=umh / subme=11 / psy=1 / psy_rd=1.00:0.15 / mixed_ref=1 / me_range=32 / chroma_me=1 / trellis=2 / 8x8dct=1 / cqm=0 / deadzone=21, 11 / fast_pskip=0 / chroma_qp_offset=-3 / threads=8 / lookahead_threads=3 / sliced_threads=0 / nr=0 / decimate=0 / interlaced=0 / bluray_compat=0 / constrained_intra=0 / bframes=11 / b_pyramid=2 / b_adapt=2 / b_bias=0 / direct=3 / weightb=1 / open_gop=0 / weightp=2 / keyint=240 / keyint_min=23 / scenecut=40 / intra_refresh=0 / rc=2pass / mbtree=0 / bitrate=2164 / ratetol=1.0 / qcomp=0.60 / qpmin=0 / qpmax=69 / qpstep=4 / cplxblur=20.0 / qblur=0.5 / ip_ratio=1.40 / pb_ratio=1.30 / aq=1:1.00
Язык : French
Default : Да
Forced : Нет

Аудио #1
Идентификатор : 2
Формат : AC-3
Формат/Информация : Audio Coding 3
Коммерческое название : Dolby Digital
Идентификатор кодека : A_AC3
Продолжительность : 1 ч. 48 м.
Вид битрейта : Постоянный
Битрейт : 384 Кбит/сек
Каналы : 6 каналов
Channel layout : L R C LFE Ls Rs
Частота : 48, 0 КГц
Частота кадров : 31, 250 кадров/сек (1536 SPF)
Метод сжатия : С потерями
Размер потока : 299 Мбайт (11%)
Заголовок : iTunes
Язык : Russian
Service kind : Complete Main
Default : Да
Forced : Да

Аудио #2
Идентификатор : 3
Формат : AC-3
Формат/Информация : Audio Coding 3
Коммерческое название : Dolby Digital
Идентификатор кодека : A_AC3
Продолжительность : 1 ч. 48 м.
Вид битрейта : Постоянный
Битрейт : 384 Кбит/сек
Каналы : 6 каналов
Channel layout : L R C LFE Ls Rs
Частота : 48, 0 КГц
Частота кадров : 31, 250 кадров/сек (1536 SPF)
Метод сжатия : С потерями
Размер потока : 299 Мбайт (11%)
Заголовок : iTunes
Язык : Ukrainian
Service kind : Complete Main
Default : Нет
Forced : Нет

Аудио #3
Идентификатор : 4
Формат : AC-3
Формат/Информация : Audio Coding 3
Коммерческое название : Dolby Digital
Идентификатор кодека : A_AC3
Продолжительность : 1 ч. 48 м.
Вид битрейта : Постоянный
Битрейт : 448 Кбит/сек
Каналы : 6 каналов
Channel layout : L R C LFE Ls Rs
Частота : 48, 0 КГц
Частота кадров : 31, 250 кадров/сек (1536 SPF)
Метод сжатия : С потерями
Размер потока : 349 Мбайт (13%)
Язык : French
Service kind : Complete Main
Default : Нет
Forced : Нет

Текст #1
Идентификатор : 5
Формат : UTF-8
Идентификатор кодека : S_TEXT/UTF8
Идентификатор кодека/Информация : UTF-8 Plain Text
Продолжительность : 1 ч. 41 м.
Битрейт : 78 бит/сек
Count of elements : 1312
Размер потока : 58, 2 Кбайт (0%)
Заголовок : Full
Язык : Russian
Default : Нет
Forced : Нет

Текст #2
Идентификатор : 6
Формат : UTF-8
Идентификатор кодека : S_TEXT/UTF8
Идентификатор кодека/Информация : UTF-8 Plain Text
Продолжительность : 1 ч. 42 м.
Битрейт : 43 бит/сек
Count of elements : 1002
Размер потока : 32, 4 Кбайт (0%)
Заголовок : Full
Язык : English
Default : Нет
Forced : Нет

Меню
00:00:00.000 : :Chapter 01
00:08:15.745 : :Chapter 02
00:18:32.361 : :Chapter 03
00:26:43.018 : :Chapter 04
00:37:53.354 : :Chapter 05
00:50:26.732 : :Chapter 06
01:01:34.190 : :Chapter 07
01:13:40.624 : :Chapter 08
01:19:26.219 : :Chapter 09
01:29:08.926 : :Chapter 10
01:35:54.707 : :Chapter 11
01:42:22.427 : :Chapter 12

piratbit.pw



Скачать Танцуй сердцем через торрент https://i112.fastpic.ru/big/2020/0916/ae/6ea1ad14ccbdd0882e5637cb882372ae.jpg Скачать фильм Танцуй сердцем через торрент бесплантно в хорошем качестве Описание: Энергия танца, безудержный ритм и биение сердца - ради этого Джозеф готов отказаться от всего и отправиться на битву лучших ... 10 10 3
Торрент: Зарегистрирован [2020-09-17 04:03] · скачан: 44 раз
Статус: √ проверено
Размер: 2.57 GB
Как cкачать? Как скачать Танцуй сердцем через торрент | qTorrent

28-11-2019 20:33  

Отключить всю рекламу на сайте

    Дорогой пользователь! Огромная просьба, поблагодарите релизера, оцените раздачу и оставьте свои комментарий, если Вы скачали Танцуй сердцем через торрент бесплатно! Внесите свою лепту в развитие PiratBit!
    Комментировать посты могут только пользователи прошедшие не сложную регистрацию
    Показать сообщения:    

    Танцуй сердцем через торрент
    Скачать бесплатно Танцуй сердцем
    Танцуй сердцем скачать торрент
    Танцуй сердцем смотреть онлайн
    Cкачать фильм Танцуй сердцем бесплатно
    Танцуй сердцем скачать торрент в хорошем качестве
    Танцуй сердцем смотреть онлайн бесплатно в хорошем качестве


    Вы не можете начинать темы
    Вы не можете отвечать на сообщения
    Вы не можете редактировать свои сообщения
    Вы не можете удалять свои сообщения
    Вы не можете голосовать в опросах
    Вы не можете прикреплять файлы к сообщениям
    Вы можете скачивать файлы