Ссылка на приватное зеркало нашего сайта всего за 1$. Внимание количество ограничено!!!

2 сезон

iTunes

1 сезон

1

2 сезон

2 сезон

iTunes

1 сезон

RePack

30

Ultimate

ВАЖНО

ИГРА 18+

pack

RePack

MK11
pack

Забери бонус

RePack

jed

!!Акция!!

Alien_Rage

RePack

fifa19

RePack

Assassins Creed: Odyssey

RePack

NEED FOR SPEED™ PAYBACK

4 сезон

9 сезон

Бесстыжие 9 сезон

Все сериалы

все сериалы на PB.wtf

RePack

FAR CRY 5
  

История Дэвида Копперфилда / The Personal History of David Copperfield (Армандо Ианнуччи) [2019, Драма, комедия, BDRip-AVC] DUB [iTunes] piratbit.pw

История Дэвида Копперфилда через торрент piratbit.pw

Размер: 2.84 GB | Добавлен: 2 мес. 10 д. назад | Торрент скачан:115 раз
Скачать  

17-09-2020 03:43 История Дэвида Копперфилда Скачать торрент  

История Дэвида Копперфилда | The Personal History of David Copperfield
Год выпуска: 2019
Страна: Великобритания, США
Жанр: Драма, комедия
Продолжительность: 01:59:45
Перевод: Дублированный | iTunes
Субтитры: Русские (2xFull), английские (Full, SDH)

Режиссер: Армандо Ианнуччи

rating

В ролях: Дев Патель, Хью Лори, Тильда Суинтон, Фисайо Акинаде, Никки Амука-Бёрд, Элби Эткинсон, Анейрин Барнард, Тувэйн Барретт, Найджел Беттс, Руби Бенталл, Даррен Бойд, Питер Капальди, Гвендолин Кристи

Описание: История Дэвида Копперфилда началась в кипящем от событий Лондоне, где перемешались большие деньги, модные районы и предприниматели всех мастей. Пройдя путь от неприкаянного ребенка до известного писателя, он всего добивался сам и был готов на безумство ради любви. Копперфилд - это живой символ эпохи, в которую хочется возвращаться вновь и вновь.

Качество: BDRip-AVC
Формат: MKV

Видео: 1024x428 (2, 40:1), 23, 976 fps, MPEG-4 AVC ~ 2570 Kbps avg, 0.245 bit/pixel
Аудио#1: AC3, 48 kHz, 6 ch, ~384.00 kbps avg | русский | iTunes
Аудио#2: AC3, 48 kHz, 6 ch, ~448.00 kbps avg | анлийский | Оригинал
скриншот  скриншот  скриншот  скриншот  скриншот  

Общее
Уникальный идентификатор : 178447500827152103535049407572120270900 (0x863FBD10974896F5CF5D72F045CD7834)
Полное имя : E:TorrentsFilesThe.Personal.History.of.David.Copperfield.2019.BDRip.2.84Gb.x264.mkv
Формат : Matroska
Версия формата : Version 4
Размер файла : 2, 84 Гбайт
Продолжительность : 1 ч. 59 м.
Общий поток : 3 400 Кбит/сек
Название фильма : История Дэвида Копперфилда / The Personal History of David Copperfield (2019)
Дата кодирования : UTC 2020-09-17 00:39:45
Программа кодирования : mkvmerge v47.0.0 ('Black Flag') 64-bit
Библиотека кодирования : libebml v1.3.10 + libmatroska v1.5.2
Обложка : Yes
Attachments : cover.jpg

Видео
Идентификатор : 1
Формат : AVC
Формат/Информация : Advanced Video Codec
Профиль формата : High@L4.1
Настройки формата : CABAC / 9 Ref Frames
Параметр CABAC формата : Да
Параметр RefFrames формата : 9 кадров
Идентификатор кодека : V_MPEG4/ISO/AVC
Продолжительность : 1 ч. 59 м.
Битрейт : 2 570 Кбит/сек
Ширина : 1 024 пикселя
Высота : 428 пикселей
Соотношение сторон : 2, 40:1
Режим частоты кадров : Постоянный
Частота кадров : 23, 976 кадра/сек
Цветовое пространство : YUV
Субдискретизация насыщенности : 4:2:0
Битовая глубина : 8 бит
Тип развёртки : Прогрессивная
Бит/(Пиксели*Кадры) : 0.245
Размер потока : 2, 14 Гбайт (75%)
Заголовок : #stillet
Библиотека кодирования : x264 core 152 r2851bm ba24899
Настройки программы : cabac=1 / ref=9 / deblock=1:-2:-2 / analyse=0x3:0x113 / me=umh / subme=11 / psy=1 / psy_rd=1.00:0.15 / mixed_ref=1 / me_range=32 / chroma_me=1 / trellis=2 / 8x8dct=1 / cqm=0 / deadzone=21, 11 / fast_pskip=0 / chroma_qp_offset=-3 / threads=8 / lookahead_threads=3 / sliced_threads=0 / nr=0 / decimate=0 / interlaced=0 / bluray_compat=0 / constrained_intra=0 / bframes=11 / b_pyramid=2 / b_adapt=2 / b_bias=0 / direct=3 / weightb=1 / open_gop=0 / weightp=2 / keyint=240 / keyint_min=23 / scenecut=40 / intra_refresh=0 / rc=2pass / mbtree=0 / bitrate=2570 / ratetol=1.0 / qcomp=0.60 / qpmin=0 / qpmax=69 / qpstep=4 / cplxblur=20.0 / qblur=0.5 / ip_ratio=1.40 / pb_ratio=1.30 / aq=1:1.00
Язык : English
Default : Да
Forced : Нет

Аудио #1
Идентификатор : 2
Формат : AC-3
Формат/Информация : Audio Coding 3
Коммерческое название : Dolby Digital
Идентификатор кодека : A_AC3
Продолжительность : 1 ч. 59 м.
Вид битрейта : Постоянный
Битрейт : 384 Кбит/сек
Каналы : 6 каналов
Channel layout : L R C LFE Ls Rs
Частота : 48, 0 КГц
Частота кадров : 31, 250 кадров/сек (1536 SPF)
Метод сжатия : С потерями
Размер потока : 328 Мбайт (11%)
Заголовок : iTunes
Язык : Russian
Service kind : Complete Main
Default : Да
Forced : Да

Аудио #2
Идентификатор : 3
Формат : AC-3
Формат/Информация : Audio Coding 3
Коммерческое название : Dolby Digital
Идентификатор кодека : A_AC3
Продолжительность : 1 ч. 59 м.
Вид битрейта : Постоянный
Битрейт : 448 Кбит/сек
Каналы : 6 каналов
Channel layout : L R C LFE Ls Rs
Частота : 48, 0 КГц
Частота кадров : 31, 250 кадров/сек (1536 SPF)
Метод сжатия : С потерями
Размер потока : 383 Мбайт (13%)
Язык : English
Service kind : Complete Main
Default : Нет
Forced : Нет

Текст #1
Идентификатор : 4
Формат : UTF-8
Идентификатор кодека : S_TEXT/UTF8
Идентификатор кодека/Информация : UTF-8 Plain Text
Продолжительность : 1 ч. 55 м.
Битрейт : 125 бит/сек
Count of elements : 2042
Размер потока : 106 Кбайт (0%)
Заголовок : Full | iTunes
Язык : Russian
Default : Нет
Forced : Нет

Текст #2
Идентификатор : 5
Формат : UTF-8
Идентификатор кодека : S_TEXT/UTF8
Идентификатор кодека/Информация : UTF-8 Plain Text
Продолжительность : 1 ч. 56 м.
Битрейт : 133 бит/сек
Count of elements : 1850
Размер потока : 114 Кбайт (0%)
Заголовок : Full | FOCS
Язык : Russian
Default : Нет
Forced : Нет

Текст #3
Идентификатор : 6
Формат : UTF-8
Идентификатор кодека : S_TEXT/UTF8
Идентификатор кодека/Информация : UTF-8 Plain Text
Продолжительность : 1 ч. 58 м.
Битрейт : 78 бит/сек
Count of elements : 1838
Размер потока : 67, 7 Кбайт (0%)
Заголовок : Full
Язык : English
Default : Нет
Forced : Нет

Текст #4
Идентификатор : 7
Формат : UTF-8
Идентификатор кодека : S_TEXT/UTF8
Идентификатор кодека/Информация : UTF-8 Plain Text
Продолжительность : 1 ч. 58 м.
Битрейт : 83 бит/сек
Count of elements : 1943
Размер потока : 72, 4 Кбайт (0%)
Заголовок : SDH
Язык : English
Default : Нет
Forced : Нет

Меню
00:00:00.000 : en:Chapter 01
00:04:55.879 : en:Chapter 02
00:14:56.395 : en:Chapter 03
00:23:55.017 : en:Chapter 04
00:33:04.983 : en:Chapter 05
00:42:44.395 : en:Chapter 06
00:51:51.942 : en:Chapter 07
01:03:33.935 : en:Chapter 08
01:12:23.339 : en:Chapter 09
01:23:47.898 : en:Chapter 10
01:36:58.604 : en:Chapter 11
01:49:34.193 : en:Chapter 12

piratbit.pw



Скачать История Дэвида Копперфилда через торрент https://i112.fastpic.ru/big/2020/0917/67/b9c465d51f4480c234e217d145239867.jpg Скачать фильм История Дэвида Копперфилда через торрент бесплантно в хорошем качестве Описание: История Дэвида Копперфилда началась в кипящем от событий Лондоне, где перемешались большие деньги, модные районы и ... 10 10 5
Торрент: Зарегистрирован [2020-09-17 03:43] · скачан: 115 раз
Статус: √ проверено
Размер: 2.84 GB
Как cкачать? Как скачать История Дэвида Копперфилда через торрент | qTorrent

% Раздел Тема Автор DL S | L
Фильмы 2019-2020 [DVDrip, WEB-DLRip, HDrip] (DUB, MVO) [ 2.14 GB ] История Дэвида Копперфилда / The Personal History of David Copperfield [2019 BDRip] - Twi7ter Скачать
30 | 0
Фильмы 2019-2020 [DVDrip, WEB-DLRip, HDrip] (DUB, MVO) [ 1.48 GB ] История Дэвида Копперфилда / The Personal History of David Copperfield [2019 BDRip] - Twi7ter Скачать
25 | 0
Фильмы 2019-2020 [DVDrip, WEB-DLRip, HDrip] (DUB, MVO) [ 752 MB ] История Дэвида Копперфилда / The Personal History of David Copperfield [2019 экранизация HDRip-AVC] от MediaBit Lithuania Скачать
1 | 0
Фильмы 2019-2020 [DVDrip, WEB-DLRip, HDrip] (DUB, MVO) [ 747 MB ] История Дэвида Копперфилда / The Personal History of David Copperfield [2019 HDRip] bober100 Скачать
1 | 0
Ultra HD (UHD: 2K, 4K, 8K) — видео сверхвысокой чёткости [ 15.42 GB ] История Дэвида Копперфилда / The Personal History of David Copperfield [2019 UHD WEB-DL 2160p] bober100 Скачать
5 | 0
Фильмы 2019-2020 [DVDrip, WEB-DLRip, HDrip] (DUB, MVO) [ 1.46 GB ] История Дэвида Копперфилда / The Personal History of David Copperfield [2019 BDRip] DUB [ ] bober100 Скачать
4 | 0
Фильмы (Blu-ray, BD-Remux, HDDVD) [ 30.62 GB ] История Дэвида Копперфилда / The Personal History of David Copperfield [2019 BD Remux 1080p] bober100 Скачать
1 | 0

28-11-2019 20:33  

Отключить всю рекламу на сайте

    Дорогой пользователь! Огромная просьба, поблагодарите релизера, оцените раздачу и оставьте свои комментарий, если Вы скачали История Дэвида Копперфилда через торрент бесплатно! Внесите свою лепту в развитие PiratBit!
    Комментировать посты могут только пользователи прошедшие не сложную регистрацию
    Показать сообщения:    

    История Дэвида Копперфилда через торрент
    Скачать бесплатно История Дэвида Копперфилда
    История Дэвида Копперфилда скачать торрент
    История Дэвида Копперфилда смотреть онлайн
    Cкачать фильм История Дэвида Копперфилда бесплатно
    История Дэвида Копперфилда скачать торрент в хорошем качестве
    История Дэвида Копперфилда смотреть онлайн бесплатно в хорошем качестве


    Вы не можете начинать темы
    Вы не можете отвечать на сообщения
    Вы не можете редактировать свои сообщения
    Вы не можете удалять свои сообщения
    Вы не можете голосовать в опросах
    Вы не можете прикреплять файлы к сообщениям
    Вы можете скачивать файлы