Ссылка на приватное зеркало нашего сайта всего за 1$. Внимание количество ограничено!!!

2 сезон

iTunes

1 сезон

1

2 сезон

2 сезон

iTunes

1 сезон

RePack

30

Ultimate

ВАЖНО

ИГРА 18+

pack

RePack

MK11
pack

Забери бонус

RePack

jed

!!Акция!!

Alien_Rage

RePack

fifa19

RePack

Assassins Creed: Odyssey

RePack

NEED FOR SPEED™ PAYBACK

4 сезон

9 сезон

Бесстыжие 9 сезон

Все сериалы

все сериалы на PB.wtf

RePack

FAR CRY 5
  

Английские псы в Бангкоке / English Dogs (Таффи Эдвардс) [2020, Боевик, криминал, WEB-DLRip-AVC] [MVO] [MUZOBOZ@] от MediaBit piratbit.pw

Английские псы в Бангкоке через торрент piratbit.pw

Раздают: 2 [ 0 KB/s ]
Размер: 1.73 GB | Добавлен: 2 мес. 8 д. назад | Торрент скачан:105 раз
Скачать  

16-09-2020 16:39 Английские псы в Бангкоке Скачать торрент  


Английские псы в Бангкоке / English Dogs
Информация о фильме:
Название: Английские псы в Бангкоке
Оригинальное название: English Dogs
Год выхода: 2020
Жанр: Боевик, криминал
Режиссер: Таффи Эдвардс

В ролях: Рон Смуренбург, Байрон Гибсон, Оуэн О'Брайен, Дэмиэн Мевис, Дин Александру, Александр Уинтерс, Марк Стас, Дэвид Блазейко, Ли Барвелл, Ли Мэйсон

Описание: Некий солдат и кикбоксёр из криминального мира объединяют свои усилия, чтобы стать крупнейшими нелегальными поставщиками стероидов в Азии, неся хаос и разрушение на улицы Таиланда.

rating

Страна: Великобритания
Студия: Crazy Rooster Films, Zillwood films
Продолжительность: 01:25:09
Перевод: Любительский (многоголосый, закадровый) - @MUZOBOZ@



Информация о файле:
Кодек: AVC
Формат: MKV
Качество: WEB-DLRip-AVC
Видео: MPEG-4 AVC, 1024x438 (2.35:1), 23.976 fps, 2 722 kb/s, 0.253
Аудио RU: AC3, 2 ch, 48 kHz, 192 kbps
Субтитры: Английские



General
Unique ID : 324847938936835096562909573951280308298 (0xF4636FF2B3C7C8ED914E41B25F8AE04A)
Complete name : D:uTorrentРипы_от_wolf1245_MediaBitEnglish Dogs - (2020)_WEB-DLRip-AVC_wolf1245 & MediaBit.mkv
Format : Matroska
Format version : Version 4
File size : 1.73 GiB
Duration : 1 h 25 min
Overall bit rate : 2 913 kb/s
Movie name : English Dogs - (2020)_WEB-DLRip-AVC_wolf1245 & MediaBit
Encoded date : UTC 2020-09-16 16:23:00
Writing application : mkvmerge v50.0.0 ('Awakenings') 64-bit
Writing library : libebml v1.4.0 + libmatroska v1.6.2
Cover : Yes
Attachments : Cover.png

Video
ID : 1
Format : AVC
Format/Info : Advanced Video Codec
Format profile : High@L4.1
Format settings : CABAC / 11 Ref Frames
Format settings, CABAC : Yes
Format settings, Reference frames : 11 frames
Codec ID : V_MPEG4/ISO/AVC
Duration : 1 h 25 min
Bit rate : 2 722 kb/s
Width : 1 024 pixels
Height : 438 pixels
Display aspect ratio : 2.35:1
Frame rate mode : Constant
Frame rate : 23.976 (24000/1001) FPS
Color space : YUV
Chroma subsampling : 4:2:0
Bit depth : 8 bits
Scan type : Progressive
Bits/(Pixel*Frame) : 0.253
Stream size : 1.62 GiB (93%)
Title : wolf1245 & MediaBit
Writing library : x264 core 157 r2958 57baac4
Encoding settings : cabac=1 / ref=11 / deblock=1:-3:-3 / analyse=0x3:0x133 / me=umh / subme=11 / psy=1 / psy_rd=1.00:0.00 / mixed_ref=1 / me_range=48 / chroma_me=1 / trellis=2 / 8x8dct=1 / cqm=0 / deadzone=21,11 / fast_pskip=0 / chroma_qp_offset=-2 / threads=10 / lookahead_threads=2 / sliced_threads=0 / nr=0 / decimate=0 / interlaced=0 / bluray_compat=0 / constrained_intra=0 / bframes=11 / b_pyramid=2 / b_adapt=2 / b_bias=0 / direct=3 / weightb=1 / open_gop=0 / weightp=2 / keyint=240 / keyint_min=24 / scenecut=40 / intra_refresh=0 / rc_lookahead=60 / rc=2pass / mbtree=0 / bitrate=2722 / ratetol=1.0 / qcomp=0.60 / qpmin=0 / qpmax=69 / qpstep=4 / cplxblur=20.0 / qblur=0.5 / vbv_maxrate=50000 / vbv_bufsize=62500 / nal_hrd=none / filler=0 / ip_ratio=1.40 / pb_ratio=1.30 / aq=2:1.00
Language : English
Default : Yes
Forced : No
Color range : Limited
Color primaries : BT.709
Transfer characteristics : BT.709
Matrix coefficients : BT.709

Audio
ID : 2
Format : AC-3
Format/Info : Audio Coding 3
Commercial name : Dolby Digital
Codec ID : A_AC3
Duration : 1 h 25 min
Bit rate mode : Constant
Bit rate : 192 kb/s
Channel(s) : 2 channels
Channel layout : L R
Sampling rate : 48.0 kHz
Frame rate : 31.250 FPS (1536 SPF)
Compression mode : Lossy
Stream size : 117 MiB (7%)
Title : MVO [@MUZOBOZ@] MediaBit
Language : Russian
Service kind : Complete Main
Default : Yes
Forced : No

Text
ID : 3
Format : UTF-8
Codec ID : S_TEXT/UTF8
Codec ID/Info : UTF-8 Plain Text
Duration : 1 h 22 min
Bit rate : 56 b/s
Count of elements : 1247
Stream size : 33.8 KiB (0%)
Language : English
Default : No
Forced : No
Релиз от: &
piratbit.pw



Скачать Английские псы в Бангкоке через торрент https://d.radikal.ru/d04/2009/a1/174a3a3e298a.png Скачать фильм Английские псы в Бангкоке через торрент бесплантно в хорошем качестве Описание: Некий солдат и кикбоксёр из криминального мира объединяют свои усилия, чтобы стать крупнейшими нелегальными поставщиками ... 8.2 10 5
Торрент: Зарегистрирован [2020-09-16 16:39] · скачан: 105 раз
Статус: √ проверено
Размер: 1.73 GB
Как cкачать? Как скачать Английские псы в Бангкоке через торрент | qTorrent

28-11-2019 20:33  

Отключить всю рекламу на сайте

    Дорогой пользователь! Огромная просьба, поблагодарите релизера, оцените раздачу и оставьте свои комментарий, если Вы скачали Английские псы в Бангкоке через торрент бесплатно! Внесите свою лепту в развитие PiratBit!
    Комментировать посты могут только пользователи прошедшие не сложную регистрацию
    Показать сообщения:    

    Английские псы в Бангкоке через торрент
    Скачать бесплатно Английские псы в Бангкоке
    Английские псы в Бангкоке скачать торрент
    Английские псы в Бангкоке смотреть онлайн
    Cкачать фильм Английские псы в Бангкоке бесплатно
    Английские псы в Бангкоке скачать торрент в хорошем качестве
    Английские псы в Бангкоке смотреть онлайн бесплатно в хорошем качестве


    Вы не можете начинать темы
    Вы не можете отвечать на сообщения
    Вы не можете редактировать свои сообщения
    Вы не можете удалять свои сообщения
    Вы не можете голосовать в опросах
    Вы не можете прикреплять файлы к сообщениям
    Вы можете скачивать файлы