2 сезон

iTunes

1 сезон

1

iTunes

iTunes

iTunes

1 сезон

RePack

30

ИГРА 18+

pack

ВАЖНО

!!Акция!!

Alien_RageХит недели

RePack

MK11
pack

Забери бонус

RePack

jed

!!Акция!!

Alien_Rage

RePack

fifa19

RePack

Assassins Creed: Odyssey

RePack

NEED FOR SPEED™ PAYBACK

4 сезон

9 сезон

Бесстыжие 9 сезон

Все сериалы

все сериалы на PB.wtf

RePack

FAR CRY 5
  

Супермозг / Le Cerveau (Жерар Ури) [1969 г., Комедия, криминал, приключения, BDRip (720p), Профессиональный (двухголосый)] piratbit.pw

Супермозг через торрент piratbit.pw

Раздают: 1 [ 0 KB/s ]
Размер: 5.77 GB | Добавлен: 1 мес. 15 д. назад | Торрент скачан:11 раз
Скачать  

16-09-2020 11:37 Супермозг Скачать торрент  

Супермозг / Le Cerveau
Год выпуска: 1969
Страна: Франция, Италия
Жанр: Комедия, криминал, приключения
Продолжительность: 01:54:34
Перевод: Профессиональный (двухголосый) +авторский, Л (Володарский) +авторский,П (Прямостанов)
Субтитры: Русские, английские

Режиссер: Жерар Ури

В ролях: Жан-Поль Бельмондо, Бурвиль, Дэвид Найвен, Эли Уоллах, Сильвия Монти, Раймон Жером, Жак Балютен, Анри Атталь, Ив Барсак, Жак Сирон, Робер Дальбан, Марио Давид, Рауль Дельфосс, Томми Дагган, Генри Женес, Софи Гримальди, Фернан Гио, Макс Монтавон, Патрик Прежан, Джон Рико, Тревор А. Стефенс, Арч Тейлор, Доминик Зарди, Роланд Монк, Жан-Франсуа Барр, Миша Байяр, Мик Бессон, Ги Боннафу, Джерри Броувер, Марсель Шарве, Луиджи Кортезе, Даниэль Кроэм, Чарльз Далин, Ги Делорм, Жан Дроз, Мишель Гарлэнд, Жерар Эрнандес, Боб Ингарао, Гордон Лэси, Боб Лерик, Жан Минизини, Рэймонд Пирсон, Жан-Пьер Позье, Дуглас Рид, Пьер Руссель

Описание: Слегка абсурдистская комедия с молодым, обаятельным Бельмондо и великолепным, как всегда, Бурвилем. Французское качество и ностальгия... Обаятельный мошенник Артур, с помощью друга бежавший из тюрьмы, решил ограбить спецвагон поезда Париж-Брюссель. В том же поезде находился знаменитый преступник «Супермозг», который тоже хотел заполучить миллионы, находящиеся в спецвагоне…

Качество: BDRip (720p)
Формат: MKV
Видео кодек: AVC
Аудио кодек: AC3=DTS
Видео: MPEG-4 AVC, (1280x548),5117 Кбит/с, 24.000 кадра/сек
Аудио#1: AC3, 2 ch,192 kbps (Rus) 48.0 KHz Профессиональный (двухголосый)
Аудио#2: AC3, 2 ch,192 kbps (Rus) 48.0 KHz авторский, Л (Володарский)
Аудио#3: AC3, 2 ch,192 kbps (Rus) 48.0 KHz авторский,П (Прямостанов)
Аудио#4: DTS, 2 ch,1509 kbps (Rus) 48.0 KHz французский
скриншот   скриншот   скриншот  

Имя файла: Супермозг.1969.BDRip 720p.mkv
Формат файла: .mkv (Matroska)
Размер файла: 5,77 GB (6 191 554 931 bytes)
Длительность: 1h 54mn
Навигация по главам: Есть
Битрейт (все потоки): 7 205 Kbps
Файл создан: UTC 2020-09-16 04:28:01
Создан при помощи: mkvmerge v8.2.0 ('World of Adventure') 64bit
Использовалась библиотека: libebml v1.3.1 + libmatroska v1.4.2
Обложка: Отсутствует
:
Название: Супермозг.1969.BDRip (720p)
:
Тип потока: Видео
Длительность: 01:54:34
Кодек: AVC
Кодек/описание: Advanced Video Codec
Кодек/профиль: High@L4.1
Кодек/ID: V_MPEG4/ISO/AVC
Кодек/CABAC: Yes
Кодек/ReFrames: 11 frames
Размеры изображения: 1280 x 548 (2.35:1)
Частота кадров: 24.000 fps
Частота кадров/тип: Constant
Размер потока: 3.98 GiB (69%)
Битрейт: 4 977 Kbps
Библиотека кодирования: x264 core 159 r2991 1771b55
Цветовое пространство: YUV
Тип развёртки: Progressive
Колориметрия: 4:2:0
Глубина: 8 bits
Настройки кодирования: cabac=1 / ref=11 / deblock=1:-2:-2 / analyse=0x3:0x113 / me=umh / subme=11 / psy=1 / psy_rd=1.00:0.15 / mixed_ref=1 / me_range=32 / chroma_me=1 / trellis=2 / 8x8dct=1 / cqm=0 / deadzone=21,11 / fast_pskip=0 / chroma_qp_offset=-3 / threads=6 / lookahead_threads=1 / sliced_threads=0 / nr=0 / decimate=1 / interlaced=0 / bluray_compat=0 / constrained_intra=0 / bframes=7 / b_pyramid=2 / b_adapt=2 / b_bias=0 / direct=1 / weightb=1 / open_gop=0 / weightp=2 / keyint=230 / keyint_min=23 / scenecut=40 / intra_refresh=0 / rc_lookahead=40 / rc=crf / mbtree=1 / crf=18.6 / qcomp=0.60 / qpmin=0 / qpmax=69 / qpstep=4 / vbv_maxrate=50000 / vbv_bufsize=62500 / crf_max=0.0 / nal_hrd=none / filler=0 / ip_ratio=1.40 / aq=1:1.00
:
Тип потока: Звук #1
Язык: Russian
Название: DVO
Длительность: 01:54:34.792
Кодек: AC-3
Кодек/описание: Audio Coding 3
Кодек/ID: A_AC3
Частота дискретизации: 48.0 KHz
Каналов: 2 channels
Битрейт: 192 Kbps
Битрейт/тип: Constant
Размер потока: 157 MiB (3%)
Глубина: 16 bits
Метод сжатия: Lossy
:
Тип потока: Звук #2
Язык: Russian
Название: Леонид Володарский
Длительность: 01:54:34.792
Кодек: AC-3
Кодек/описание: Audio Coding 3
Кодек/ID: A_AC3
Частота дискретизации: 48.0 KHz
Каналов: 2 channels
Битрейт: 192 Kbps
Битрейт/тип: Constant
Размер потока: 157 MiB (3%)
Глубина: 16 bits
Метод сжатия: Lossy
:
Тип потока: Звук #3
Язык: Russian
Название: Павел Прямостанов
Длительность: 01:54:34.792
Кодек: AC-3
Кодек/описание: Audio Coding 3
Кодек/ID: A_AC3
Частота дискретизации: 48.0 KHz
Каналов: 2 channels
Битрейт: 192 Kbps
Битрейт/тип: Constant
Размер потока: 157 MiB (3%)
Глубина: 16 bits
Метод сжатия: Lossy
:
Тип потока: Звук #4
Язык: French
Название: оригинал
Длительность: 01:54:34.792
Кодек: DTS
Кодек/описание: Digital Theater Systems
Кодек/ID: A_DTS
Частота дискретизации: 48.0 KHz
Каналов: 2 channels
Битрейт: 1 509 Kbps
Битрейт/тип: Constant
Размер потока: 1.21 GiB (21%)
Глубина: 16 bits
Метод сжатия: Lossy
:
Тип потока: Субтитры #1
Язык: Russian
Формат: UTF-8
Формат/подробно: UTF-8 Plain Text
Название: русские
:
Тип потока: Субтитры #2
Язык: French
Формат: UTF-8
Формат/подробно: UTF-8 Plain Text
Название: французские
:
Тип потока: Субтитры #3
Язык: English
Формат: UTF-8
Формат/подробно: UTF-8 Plain Text
Название: английские

piratbit.pw



Скачать Супермозг через торрент http://pic1.kartinco.top/images/12/z57uy.jpg Скачать фильм Супермозг через торрент бесплантно в хорошем качестве Описание: Слегка абсурдистская комедия с молодым, обаятельным Бельмондо и великолепным, как всегда, Бурвилем. Французское качество и ... 10 10 2
Торрент: Зарегистрирован [2020-09-16 11:37] · скачан: 11 раз
Статус: √ проверено
Размер: 5.77 GB
Как cкачать? Как скачать Супермозг через торрент | qTorrent

% Раздел Тема Автор DL S | L
Фильмы (Blu-ray, BD-Remux, HDDVD) [ 23.38 GB ] Супермозг / Le cerveau [1969 BDRemux 1080p] [DVO] + [Orig] + 3x[Sub] killermax2013 Скачать
1 | 0
# Классика зарубежного кино [ 9.27 GB ] Супермозг / Le Cerveau [1969 BDRip ] Бумер Скачать
1 | 0

28-11-2019 20:33  

Отключить всю рекламу на сайте

    Дорогой пользователь! Огромная просьба, поблагодарите релизера, оцените раздачу и оставьте свои комментарий, если Вы скачали Супермозг через торрент бесплатно! Внесите свою лепту в развитие PiratBit!
    Комментировать посты могут только пользователи прошедшие не сложную регистрацию
    Показать сообщения:    

    Супермозг через торрент
    Скачать бесплатно Супермозг
    Супермозг скачать торрент
    Супермозг смотреть онлайн
    Cкачать фильм Супермозг бесплатно
    Супермозг скачать торрент в хорошем качестве
    Супермозг смотреть онлайн бесплатно в хорошем качестве


    Вы не можете начинать темы
    Вы не можете отвечать на сообщения
    Вы не можете редактировать свои сообщения
    Вы не можете удалять свои сообщения
    Вы не можете голосовать в опросах
    Вы не можете прикреплять файлы к сообщениям
    Вы можете скачивать файлы