Ссылка на приватное зеркало нашего сайта всего за 1$. Внимание количество ограничено!!!

2 сезон

iTunes

iTunes

1

iTunes

iTunes

iTunes

WEBRip

iTunes

30
pack

Вам бонус

ВАЖНО

!!Акция!!

Alien_RageХит недели

RePack

Horizon Zero Dawn

ИГРА 18+

pack

RePack

jed

!!Акция!!

Alien_Rage

RePack

fifa19

RePack

Assassins Creed: Odyssey

RePack

NEED FOR SPEED™ PAYBACK

4 сезон

9 сезон

Бесстыжие 9 сезон

Все сериалы

все сериалы на PB.wtf

RePack

FAR CRY 5
  

Третий день / The Third Day / Сезон: 1 / Серии: 1-2 из 6 (Филиппа Лоуторп, Марк Манден) [2020, драма, детектив, WEB-DL 1080p] [MVO] (HDRezka Studio) piratbit.pw

Третий день через торрент piratbit.pw

Раздают: 1 [ 0.4 KB/s ]
Размер: 7.85 GB | Добавлен: 1 д. 13 ч. назад | Торрент скачан:2 раза
Скачать  

16-09-2020 07:08 Третий день Скачать торрент  

Третий день / The Third Day

Год выпуска: 2020
Страна: Великобритания, США
Жанр: драма, детектив
Продолжительность: 01:00:00
Перевод: Профессиональный (многоголосый закадровый) *HDRezka Studio*

Режиссёр: Филиппа Лоуторп, Марк Манден

В ролях: Джуд Лоу, Наоми Харрис, Кэтрин Уотерстон, Пэдди Консидайн, Эмили Уотсон, Марк Льюис Джонс, Джо Блейкмор, Амер Чадха-Патель, Фрейя Аллан, Бьорье Люндберг

Описание: События разворачиваются вокруг мужчины и женщины, попавших на таинственный остров в разное время года. В центре сюжета первой истории окажется Сэм — мрачный мужчина, который прибывает на загадочный остров в летний период. Вскоре после приезда он обнаруживает группу местных жителей, одержимых желанием любой ценой сохранить древние островные традиции. Действие второй истории развернется вокруг Хелен — волевой и упрямой женщины, оказавшейся на острове зимой. Ее приезд становится причиной ожесточенных баталий, которые приводят к кардинальным переменам в дальнейшей судьбе острова и его обитателей...

rating

Качество: WEB-DL (1080p)
Видео: 1920x1080 (16:9), 23,976 fps, AVC (х264), High@L4, ~8232 kbps avg, 0.166 bit/pixel
Аудио RUS: 48 kHz, AC3, 3/2 (L,C,R,l,r) + LFE ch, ~384 kbps
Аудио ENG: 48 kHz, AC3, 3/2 (L,C,R,l,r) + LFE ch, ~384 kbps
Субтитры: Русские (Forced), английские (Full)
Общее
Уникальный идентификатор : 9695910328700110701439235618670062898 (0x74B5D4994D962AEC5EE8DA1D11B2D32)
Полное имя : The.Third.Day.S01E01.WEB-DL.1080p.HDREZKA.STUDIO.mkv
Формат : Matroska
Версия формата : Version 4
Размер файла : 3,70 Гбайт
Продолжительность : 58 м. 50 с.
Режим общего битрейта : Переменный
Общий поток : 9 003 Кбит/сек
Дата кодирования : UTC 2020-09-16 06:28:03
Программа кодирования : mkvmerge v50.0.0 ('Awakenings') 64-bit
Библиотека кодирования : libebml v1.4.0 + libmatroska v1.6.2
Attachments : poster.jpg

Видео
Идентификатор : 1
Формат : AVC
Формат/Информация : Advanced Video Codec
Профиль формата : High@L4
Настройки формата : CABAC / 4 Ref Frames
Параметр CABAC формата : Да
Параметр RefFrames формата : 4 кадра
Идентификатор кодека : V_MPEG4/ISO/AVC
Продолжительность : 58 м. 50 с.
Вид битрейта : Переменный
Битрейт : 8 232 Кбит/сек
Максимальный битрейт : 12,4 Мбит/сек
Ширина : 1 920 пикселей
Высота : 1 080 пикселей
Соотношение сторон : 16:9
Режим частоты кадров : Постоянный
Частота кадров : 23,976 (24000/1001) кадра/сек
Цветовое пространство : YUV
Субдискретизация насыщенности : 4:2:0
Битовая глубина : 8 бит
Тип развёртки : Прогрессивная
Бит/(Пиксели*Кадры) : 0.166
Размер потока : 3,38 Гбайт (91%)
Default : Да
Forced : Нет
Цветовой диапазон : Limited
Основные цвета : BT.709
Характеристики трансфера : BT.709
Коэффициенты матрицы : BT.709

Аудио #1
Идентификатор : 2
Формат : AC-3
Формат/Информация : Audio Coding 3
Коммерческое название : Dolby Digital
Идентификатор кодека : A_AC3
Продолжительность : 58 м. 50 с.
Вид битрейта : Постоянный
Битрейт : 384 Кбит/сек
Каналы : 6 каналов
Channel layout : L R C LFE Ls Rs
Частота : 48,0 КГц
Частота кадров : 31,250 кадров/сек (1536 SPF)
Метод сжатия : С потерями
Размер потока : 162 Мбайт (4%)
Язык : Russian
Default : Да
Forced : Нет

Аудио #2
Идентификатор : 3
Формат : AC-3
Формат/Информация : Audio Coding 3
Коммерческое название : Dolby Digital
Идентификатор кодека : A_AC3
Продолжительность : 58 м. 50 с.
Вид битрейта : Постоянный
Битрейт : 384 Кбит/сек
Каналы : 6 каналов
Channel layout : L R C LFE Ls Rs
Частота : 48,0 КГц
Частота кадров : 31,250 кадров/сек (1536 SPF)
Метод сжатия : С потерями
Размер потока : 162 Мбайт (4%)
Язык : English
Default : Нет
Forced : Нет

Текст #1
Идентификатор : 4
Формат : UTF-8
Идентификатор кодека : S_TEXT/UTF8
Идентификатор кодека/Информация : UTF-8 Plain Text
Продолжительность : 53 м. 28 с.
Битрейт : 1 бит/сек
Count of elements : 11
Размер потока : 556 байт (0%)
Заголовок : Forced
Язык : Russian
Default : Да
Forced : Нет

Текст #2
Идентификатор : 5
Формат : UTF-8
Идентификатор кодека : S_TEXT/UTF8
Идентификатор кодека/Информация : UTF-8 Plain Text
Продолжительность : 58 м. 14 с.
Битрейт : 54 бит/сек
Count of elements : 1334
Размер потока : 23,4 Кбайт (0%)
Язык : English
Default : Нет
Forced : Нет
скриншот   скриншот   скриншот  
Раздача ведётся путём добавления новых серий; при каждом добавлении создаётся новый торрент.
Чтобы начать докачку новой серии, пользователям необходимо сделать следующее:
1. остановить скачивание,
2. удалить старый торрент у себя из клиента (старые серии удалять не надо),
3. скачать новый торрент и запустить его у себя в клиенте вместо старого, при этом указать клиенту путь в старую папку, куда и должно происходить скачивание новых серий.

Ваш клиент при этом должен произвести хеширование (проверку) старой папки (если не производит сам - помогите ему сделать это), и будет докачивать только те серии которых у вас ещё нет. Старые серии при этом не удаляются, а продолжают раздаваться!

Eсли вы уже удалили старые серии, то предотвратить повторную закачку старых серий можно, отжав галочку в соответствующих местах при запуске нового торрента. По возможности, желательно не удалять старые серии как можно дольше, чтобы релизёр не столько продолжал раздавать старые серии, а смог сконцентрироваться на новых.

Совет для тех, кто не хочет ждать перехеширования:
Создайте ещё одну папку рядом с папкой сериала (рядом, а не в ней!!!). Каждую новую серию после удачной загрузки копируйте в новую папку так чтобы ваша основная папка всегда была пуста. Когда ваш новый торрент предложит вам закачать все файлы, выберете только последнюю. Для сидирования же укажите адрес новой папки.

Как закачать отдельный файл из торрента или докачать ранее пропущенные файлы торрента!
piratbit.pw



Скачать Третий день через торрент https://i112.fastpic.ru/big/2020/0916/e3/f3b78c3778ac2cff6d0b9a28f99153e3.jpeg Скачать фильм Третий день через торрент бесплантно в хорошем качестве Описание: События разворачиваются вокруг мужчины и женщины, попавших на таинственный остров в разное время года. В центре сюжета первой ... 10 10 2
Торрент: Зарегистрирован [2020-09-23 21:34] · скачан: 2 раз
Статус: √ проверено
Размер: 7.85 GB
Как cкачать? Как скачать Третий день через торрент | qTorrent

% Раздел Тема Автор DL S | L
Зарубежные сериалы [ 4.67 GB ] Третий день / The Third Day / Сезон: 1 / Серии: 1-2 из 6 [2020 HDTV 1080i] [MVO] killermax2013 Скачать
3 | 0

28-11-2019 20:33  

Отключить всю рекламу на сайте

    Дорогой пользователь! Огромная просьба, поблагодарите релизера, оцените раздачу и оставьте свои комментарий, если Вы скачали Третий день через торрент бесплатно! Внесите свою лепту в развитие PiratBit!
    Комментировать посты могут только пользователи прошедшие не сложную регистрацию
    Показать сообщения:    

    Третий день через торрент
    Скачать бесплатно Третий день
    Третий день скачать торрент
    Третий день смотреть онлайн
    Cкачать фильм Третий день бесплатно
    Третий день скачать торрент в хорошем качестве
    Третий день смотреть онлайн бесплатно в хорошем качестве


    Вы не можете начинать темы
    Вы не можете отвечать на сообщения
    Вы не можете редактировать свои сообщения
    Вы не можете удалять свои сообщения
    Вы не можете голосовать в опросах
    Вы не можете прикреплять файлы к сообщениям
    Вы можете скачивать файлы