Marvel's Avengers Deluxe Edition (супер цена) 159р. Внимание количество ограничено!!!

2 сезон

iTunes

iTunes

1

iTunes

iTunes

iTunes

WEBRip

iTunes

30
pack

Новость дня

ВАЖНО

!!Акция!!

Alien_RageХит недели

RePack

Horizon Zero Dawn

ИГРА 18+

pack

RePack

jed

!!Акция!!

Alien_Rage

RePack

fifa19

RePack

Assassins Creed: Odyssey

RePack

NEED FOR SPEED™ PAYBACK

4 сезон

9 сезон

Бесстыжие 9 сезон

Все сериалы

все сериалы на PB.wtf

RePack

FAR CRY 5
  

Отель «Артемида» / Hotel Artemis (Дрю Пирс) [2018, боевик, триллер, криминал, BDRip 720p] [MVO] HDRezka Studio - ExKinoRay piratbit.pw

Отель «Артемида» через торрент piratbit.pw

Раздают: 34 [ 3 MB/s ] Качают: 1 [ 546 KB/s ]
Размер: 5.25 GB | Добавлен: 2 д. 21 ч. назад | Торрент скачан:82 раза
Скачать  

16-09-2020 02:16 Отель «Артемида» Скачать торрент  

Название: Отель «Артемида»
Оригинальное название: Hotel Artemis
Год выхода: 2018
Жанр: Боевик, триллер, криминал
Режиссер: Дрю Пирс
В ролях: Джоди Фостер, Стерлинг К. Браун, София Бутелла, Джефф Голдблюм, Брайан Тайри Генри, Дженни Слейт, Закари Куинто, Чарли Дэй, Дэйв Батиста, Кеннет Чои

Описание: В Лос-Анджелесе недалекого будущего каждый уважающий себя преступник отправляется за медицинской помощью к суровой Медсестре, которая содержит отель «Артемида». Здесь члены особого клуба могут получить лечение и отдохнуть. Но парочка новых клиентов случайно приводит за собой местного криминального босса, желающего получить заветный предмет, похищенный в результате ограбления. Постояльцам отеля придется немало попотеть, ведь внутри строго-настрого запрещено любое оружие.

rating

Страна: Великобритания, США
Студия: The Ink Factory, Marc Platt Productions, Point of No Return
Продолжительность: 01:33:46
Перевод: Профессиональный (многоголосый, закадровый) | HDRezka Studio

Формат: MKV
Качество: BDRip 720p
Видео: MPEG-4 AVC, 1280x534 (2.40:1), 23.976 fps, 6770 Kbps, 0.413 bit/pixel
Аудио #01: 48 kHz, AC3, 5.1, 448 Kbps | MVO | RUS |
Аудио #02: 48 kHz, AC3, 5.1, 640 Kbps | Оригинал | ENG |
Субтитры: Русские (форс.), английские
General
Unique ID : 237084253512730074220839561847870301912 (0xB25CC42D6F695DB5AFC80FA9FB77A6D8)
Complete name : F:\Hotel.Artemis.2018.BDRip.720p.ExKinoRay.mkv
Format : Matroska
Format version : Version 2
File size : 5.25 GiB
Duration : 1 h 33 min
Overall bit rate : 8 018 kb/s
Movie name : Hotel Artemis.2018 from ExKinoRay
Encoded date : UTC 2020-09-16 00:47:50
Writing application : mkvmerge v5.6.0 ('Kenya Kane') built on May 27 2012 16:44:04
Writing library : libebml v1.2.3 + libmatroska v1.3.0

Video
ID : 1
Format : AVC
Format/Info : Advanced Video Codec
Format profile : High@L4.1
Format settings, CABAC : Yes
Format settings, ReFrames : 12 frames
Codec ID : V_MPEG4/ISO/AVC
Duration : 1 h 33 min
Bit rate : 6 770 kb/s
Width : 1 280 pixels
Height : 534 pixels
Display aspect ratio : 2.40:1
Frame rate mode : Constant
Frame rate : 23.976 (24000/1001) FPS
Color space : YUV
Chroma subsampling : 4:2:0
Bit depth : 8 bits
Scan type : Progressive
Bits/(Pixel*Frame) : 0.413
Stream size : 4.43 GiB (84%)
Title : CHC
Writing library : x264 core 155 r2867+74 66b5600 t_mod_Custom_2 [8-bit@all X86_64]
Encoding settings : cabac=1 / ref=12 / deblock=1:-3:-3 / analyse=0x3:0x113 / me=umh / subme=11 / psy=1 / fade_compensate=0.00 / psy_rd=1.00:0.00 / mixed_ref=1 / me_range=32 / chroma_me=1 / trellis=2 / 8x8dct=1 / cqm=0 / deadzone=21,11 / fast_pskip=0 / chroma_qp_offset=-2 / threads=12 / lookahead_threads=3 / sliced_threads=0 / nr=0 / decimate=0 / interlaced=0 / bluray_compat=0 / constrained_intra=0 / fgo=0 / bframes=12 / b_pyramid=2 / b_adapt=2 / b_bias=0 / direct=3 / weightb=1 / open_gop=0 / weightp=2 / keyint=250 / keyint_min=23 / scenecut=40 / intra_refresh=0 / rc_lookahead=60 / rc=crf / mbtree=0 / crf=15.5000 / qcomp=0.60 / qpmin=0:0:0 / qpmax=69:69:69 / qpstep=4 / vbv_maxrate=30000 / vbv_bufsize=38000 / crf_max=0.0 / nal_hrd=none / filler=0 / ip_ratio=1.30 / pb_ratio=1.20 / aq=3:0.80 / aq-sensitivity=10.00 / aq-factor=1.00:1.00:1.00 / aq2=0 / aq3=0 / zones=15914,16157,crf=13/65312,65407,crf=13/65260,65407,crf=13/123812,134780,crf=19/134782,134879,crf=13
Language : English
Default : Yes
Forced : No
Color range : Limited
Color primaries : BT.709
Transfer characteristics : BT.709
Matrix coefficients : BT.709

Audio #1
ID : 2
Format : AC-3
Format/Info : Audio Coding 3
Mode extension : CM (complete main)
Format settings, Endianness : Big
Codec ID : A_AC3
Duration : 1 h 33 min
Bit rate mode : Constant
Bit rate : 448 kb/s
Channel(s) : 6 channels
Channel positions : Front: L C R, Side: L R, LFE
Sampling rate : 48.0 kHz
Frame rate : 31.250 FPS (1536 spf)
Compression mode : Lossy
Stream size : 300 MiB (6%)
Title : MVO (HDrezka Studio)
Language : Russian
Default : Yes
Forced : No

Audio #2
ID : 3
Format : AC-3
Format/Info : Audio Coding 3
Mode extension : CM (complete main)
Format settings, Endianness : Big
Codec ID : A_AC3
Duration : 1 h 33 min
Bit rate mode : Constant
Bit rate : 640 kb/s
Channel(s) : 6 channels
Channel positions : Front: L C R, Side: L R, LFE
Sampling rate : 48.0 kHz
Frame rate : 31.250 FPS (1536 spf)
Compression mode : Lossy
Stream size : 429 MiB (8%)
Language : English
Default : No
Forced : No

Text #1
ID : 4
Format : UTF-8
Codec ID : S_TEXT/UTF8
Codec ID/Info : UTF-8 Plain Text
Title : Forced
Language : Russian
Default : Yes
Forced : No

Text #2
ID : 5
Format : UTF-8
Codec ID : S_TEXT/UTF8
Codec ID/Info : UTF-8 Plain Text
Title : Full
Language : English
Default : No
Forced : No

Text #3
ID : 6
Format : UTF-8
Codec ID : S_TEXT/UTF8
Codec ID/Info : UTF-8 Plain Text
Title : SDH
Language : English
Default : No
Forced : No

Menu
00:00:00.000 : en:Chapter 1
00:05:09.684 : en:Chapter 2
00:13:06.076 : en:Chapter 3
00:17:40.309 : en:Chapter 4
00:22:09.619 : en:Chapter 5
00:28:00.095 : en:Chapter 6
00:33:35.054 : en:Chapter 7
00:38:58.502 : en:Chapter 8
00:42:21.872 : en:Chapter 9
00:46:53.018 : en:Chapter 10
00:52:45.871 : en:Chapter 11
00:56:43.566 : en:Chapter 12
01:00:13.651 : en:Chapter 13
01:04:05.258 : en:Chapter 14
01:08:45.287 : en:Chapter 15
01:13:52.719 : en:Chapter 16
01:18:17.693 : en:Chapter 17
01:24:49.751 : en:Chapter 18


Релиз от:

Автор релиза: piratbit.pw



Скачать Отель «Артемида» через торрент http://c.radikal.ru/c13/1810/65/5517874a0320.jpg Скачать фильм Отель «Артемида» через торрент бесплантно в хорошем качестве Описание: В Лос-Анджелесе недалекого будущего каждый уважающий себя преступник отправляется за медицинской помощью к суровой Медсестре, ... 10 10 3
Info! Золотая раздача, скачанное не засчитывается.
Торрент: Зарегистрирован [2020-09-16 02:16] · скачан: 82 раз
Статус: √ проверено
Размер: 5.25 GB
Как cкачать? Как скачать Отель «Артемида» через торрент | qTorrent

28-11-2019 20:33  

Отключить всю рекламу на сайте

17-09-2020 06:40 Отель «Артемида» Скачать торрент  

не ну серьезно . заливать скрины через дурацкий лостпик... ну это гадко же... че до сих пор то?piratbit.pw



    Дорогой пользователь! Огромная просьба, поблагодарите релизера, оцените раздачу и оставьте свои комментарий, если Вы скачали Отель «Артемида» через торрент бесплатно! Внесите свою лепту в развитие PiratBit!
    Комментировать посты могут только пользователи прошедшие не сложную регистрацию
    Показать сообщения:    

    Отель «Артемида» через торрент
    Скачать бесплатно Отель «Артемида»
    Отель «Артемида» скачать торрент
    Отель «Артемида» смотреть онлайн
    Cкачать фильм Отель «Артемида» бесплатно
    Отель «Артемида» скачать торрент в хорошем качестве
    Отель «Артемида» смотреть онлайн бесплатно в хорошем качестве


    Вы не можете начинать темы
    Вы не можете отвечать на сообщения
    Вы не можете редактировать свои сообщения
    Вы не можете удалять свои сообщения
    Вы не можете голосовать в опросах
    Вы не можете прикреплять файлы к сообщениям
    Вы можете скачивать файлы