Marvel's Avengers Deluxe Edition (супер цена) 159р. Внимание количество ограничено!!!

2 сезон

iTunes

iTunes

1

iTunes

iTunes

iTunes

WEBRip

iTunes

30
pack

Новость дня

ВАЖНО

!!Акция!!

Alien_RageХит недели

RePack

Horizon Zero Dawn

ИГРА 18+

pack

RePack

jed

!!Акция!!

Alien_Rage

RePack

fifa19

RePack

Assassins Creed: Odyssey

RePack

NEED FOR SPEED™ PAYBACK

4 сезон

9 сезон

Бесстыжие 9 сезон

Все сериалы

все сериалы на PB.wtf

RePack

FAR CRY 5
  

Форсаж. Диабло / Diablo (Даниэль Маркович, Михал Отловски) [2019, Боевик, комедия, HDRip-AVC] [DUB] от MediaBit piratbit.pw

Форсаж. Диабло через торрент piratbit.pw

Раздают: 7 [ 14 KB/s ]
Размер: 1.66 GB | Добавлен: 5 д. назад | Торрент скачан:65 раз
Скачать  

15-09-2020 18:39 Форсаж. Диабло Скачать торрент  


Форсаж. Диабло / Diablo
Информация о фильме:
Название: Форсаж. Диабло
Оригинальное название: Diablo
Год выхода: 2019
Жанр: Боевик, комедия
Режиссер: Даниэль Маркович, Михал Отловски

В ролях: Томаш Влосок, Каролина Шимчак, Цезарий Пазура, Миколай Рознерский, Рафаль Мор, Катажина Фигура, Агнешка Влодарчик, Яцек Белер, Марчин Розальский, Войцех Бочановский

Описание: Его зовут Куба, и он - способный гонщик, у которого есть благородная цель: заработать денег на операцию младшей сестренки. Он пытается попасть в автобанду местного крутого заправилы, чтобы стать участником секретной гонки. Ставки высоки: победитель получает крупную сумму кэша, а проигравший может погибнуть. В самый разгар подготовки к заездам внимание Кубы привлекает эффектная красавица Ева с крутым нравом. К сожалению, она дочь организатора гонки - коварного мафиози.

rating

Страна: Польша
Студия: Lightcraft
Продолжительность: 01:35:28
Перевод: Дублированный



Информация о файле:
Кодек: AVC
Формат: MKV
Качество: WEB-DLRip-AVC
Видео: MPEG-4 AVC, 1024x428 (2.40:1), 23.976 fps, 2 100 kb/s, 0.200
Аудио RU: AC3, 6 ch, 48 kHz, 384 kbps
Субтитры: English
Навигация по главам: Да



x264 info: frame I:900 Avg QP:17.04 size: 49155
x264 info: frame P:31006 Avg QP:19.17 size: 22264
x264 info: frame B:105437 Avg QP:21.12 size: 7296
x264 info: consecutive B-frames: 2.7% 3.3% 7.8% 21.4% 19.1% 34.7% 5.4% 1.6% 1.1% 1.8% 0.5% 0.7%
=======================
General
Unique ID : 274410165227652293147286640101350729617 (0xCE7179B57E4AF5744A642E9F3AF06791)
Complete name : D:uTorrentРипы_от_wolf1245_MediaBitDiablo (2019).HDRip-AVC_wolf1245 & MediaBit.mkv
Format : Matroska
Format version : Version 4
File size : 1.66 GiB
Duration : 1 h 35 min
Overall bit rate : 2 486 kb/s
Movie name : Diablo (2019) from wolf1245 & MediaBit
Encoded date : UTC 2020-09-15 18:23:38
Writing application : mkvmerge v50.0.0 ('Awakenings') 64-bit
Writing library : libebml v1.4.0 + libmatroska v1.6.2
Attachments : front

Video
ID : 1
Format : AVC
Format/Info : Advanced Video Codec
Format profile : High@L4.1
Format settings : CABAC / 11 Ref Frames
Format settings, CABAC : Yes
Format settings, Reference frames : 11 frames
Codec ID : V_MPEG4/ISO/AVC
Duration : 1 h 35 min
Bit rate : 2 100 kb/s
Width : 1 024 pixels
Height : 428 pixels
Display aspect ratio : 2.40:1
Frame rate mode : Constant
Frame rate : 23.976 (24000/1001) FPS
Color space : YUV
Chroma subsampling : 4:2:0
Bit depth : 8 bits
Scan type : Progressive
Bits/(Pixel*Frame) : 0.200
Stream size : 1.40 GiB (84%)
Title : wolf1245 & MediaBit
Writing library : x264 core 157 r2958 57baac4
Encoding settings : cabac=1 / ref=11 / deblock=1:-3:-3 / analyse=0x3:0x133 / me=umh / subme=11 / psy=1 / psy_rd=1.00:0.00 / mixed_ref=1 / me_range=48 / chroma_me=1 / trellis=2 / 8x8dct=1 / cqm=0 / deadzone=21,11 / fast_pskip=0 / chroma_qp_offset=-2 / threads=10 / lookahead_threads=2 / sliced_threads=0 / nr=0 / decimate=0 / interlaced=0 / bluray_compat=0 / constrained_intra=0 / bframes=11 / b_pyramid=2 / b_adapt=2 / b_bias=0 / direct=3 / weightb=1 / open_gop=0 / weightp=2 / keyint=240 / keyint_min=24 / scenecut=40 / intra_refresh=0 / rc_lookahead=60 / rc=crf / mbtree=0 / crf=19.0 / qcomp=0.60 / qpmin=0 / qpmax=69 / qpstep=4 / vbv_maxrate=50000 / vbv_bufsize=62500 / crf_max=0.0 / nal_hrd=none / filler=0 / ip_ratio=1.40 / pb_ratio=1.30 / aq=2:1.00
Language : English
Default : Yes
Forced : No
Color range : Limited
Color primaries : BT.709
Transfer characteristics : BT.709
Matrix coefficients : BT.709

Audio
ID : 2
Format : AC-3
Format/Info : Audio Coding 3
Commercial name : Dolby Digital
Codec ID : A_AC3
Duration : 1 h 35 min
Bit rate mode : Constant
Bit rate : 384 kb/s
Channel(s) : 6 channels
Channel layout : L R C LFE Ls Rs
Sampling rate : 48.0 kHz
Frame rate : 31.250 FPS (1536 SPF)
Compression mode : Lossy
Stream size : 262 MiB (15%)
Title : DUB
Language : Russian
Service kind : Complete Main
Default : Yes
Forced : No

Text
ID : 3
Format : UTF-8
Codec ID : S_TEXT/UTF8
Codec ID/Info : UTF-8 Plain Text
Duration : 1 h 30 min
Bit rate : 30 b/s
Count of elements : 626
Stream size : 20.0 KiB (0%)
Language : English
Default : No
Forced : No

Menu
00:00:00.000 : :Chapter 01
00:05:55.521 : :Chapter 02
00:09:45.876 : :Chapter 03
00:15:02.026 : :Chapter 04
00:21:01.718 : :Chapter 05
00:28:29.791 : :Chapter 06
00:33:57.827 : :Chapter 07
00:45:41.363 : :Chapter 08
00:53:53.688 : :Chapter 09
00:59:44.038 : :Chapter 10
01:06:47.086 : :Chapter 11
01:12:07.656 : :Chapter 12
01:15:53.215 : :Chapter 13
01:19:08.160 : :Chapter 14
01:26:20.425 : :Chapter 15
01:30:34.971 : :Chapter 16
01:35:27.930 : :Chapter 17
Релиз от: &
piratbit.pw



Скачать Форсаж. Диабло через торрент https://d.radikal.ru/d39/2009/0b/8ebd61518387.jpg Скачать фильм Форсаж. Диабло через торрент бесплантно в хорошем качестве Описание: Его зовут Куба, и он - способный гонщик, у которого есть благородная цель: заработать денег на операцию младшей сестренки. Он ... 8.7 10 7
Info! Золотая раздача, скачанное не засчитывается.
Торрент: Зарегистрирован [2020-09-15 18:39] · скачан: 65 раз
Статус: √ проверено
Размер: 1.66 GB
Как cкачать? Как скачать Форсаж. Диабло через торрент | qTorrent

28-11-2019 20:33  

Отключить всю рекламу на сайте

    Дорогой пользователь! Огромная просьба, поблагодарите релизера, оцените раздачу и оставьте свои комментарий, если Вы скачали Форсаж. Диабло через торрент бесплатно! Внесите свою лепту в развитие PiratBit!
    Комментировать посты могут только пользователи прошедшие не сложную регистрацию
    Показать сообщения:    

    Форсаж. Диабло через торрент
    Скачать бесплатно Форсаж. Диабло
    Форсаж. Диабло скачать торрент
    Форсаж. Диабло смотреть онлайн
    Cкачать фильм Форсаж. Диабло бесплатно
    Форсаж. Диабло скачать торрент в хорошем качестве
    Форсаж. Диабло смотреть онлайн бесплатно в хорошем качестве


    Вы не можете начинать темы
    Вы не можете отвечать на сообщения
    Вы не можете редактировать свои сообщения
    Вы не можете удалять свои сообщения
    Вы не можете голосовать в опросах
    Вы не можете прикреплять файлы к сообщениям
    Вы можете скачивать файлы