Ссылка на приватное зеркало нашего сайта всего за 1$. Внимание количество ограничено!!!

2 сезон

iTunes

iTunes

1

iTunes

iTunes

iTunes

WEBRip

iTunes

30
pack

Вам бонус

ВАЖНО

!!Акция!!

Alien_RageХит недели

RePack

Horizon Zero Dawn

ИГРА 18+

pack

RePack

jed

!!Акция!!

Alien_Rage

RePack

fifa19

RePack

Assassins Creed: Odyssey

RePack

NEED FOR SPEED™ PAYBACK

4 сезон

9 сезон

Бесстыжие 9 сезон

Все сериалы

все сериалы на PB.wtf

RePack

FAR CRY 5
  

Пёс / Сезон: 5 / Серии: 1-16 из 20 (Николай Каптан, Игорь Забара) [2019-2020, Детектив, WEBRip] piratbit.pw

Пёс через торрент piratbit.pw

Раздают: 7 [ 0 KB/s ] Качают: 1 [ 0 KB/s ]
Размер: 10.8 GB | Добавлен: 6 д. назад | Торрент скачан:19 раз
Скачать  

15-09-2020 17:03 Пёс Скачать торрент  

Пёс 5 Год выпуска: 2019-2020
Страна: Украина
Выпущено: PRO-TV
Жанр: Детектив
Продолжительность: ~ 00:50:00 серия
Перевод: Не требуется
Субтитры: отсутствуют

Режиссер: Николай Каптан, Игорь Забара

В ролях: Андрей Саминин, Никита Панфилов, Михаил Жонин, Ольга Олексий, Денис Роднянский, Светлана Зельбет, Ольга Морозова, Тарас Мельничук

Описание: В новом сезоне напарникам Максу Максимову и Псу в очередной раз представится возможность доказать и показать на что же способны напарники. Макс и Пес будут раскрывать самые запутанные преступления.Конечно, напарникам не обойтись без поддержки с тыла. Им всячески помогают бывшая супруга Максимова Лена и его (тоже бывший) лучший друг Леонидов, который стал новым мужем. Тут вырисовывается любовный треугольник! Лена очень трепетно относится к Максу и иногда проявляет к нему определенную заботу, а это выводит Леонидова.

Качество: WEBRip
Формат: AVI

Видео: XviD, 1600 Кбит/с, 720x400
Аудио: AC3, 2 ch, 192 Кбит/с
скриншот  скриншот  скриншот  скриншот  скриншот  

General
Complete name : C:\00\6354\Пёс.s05.2019 WEBRip. Files-x\01. Пёс.s05.2019 WEBRip. Files-x.avi
Format : AVI
Format/Info : Audio Video Interleave
File size : 664 MiB
Duration : 51mn 31s
Overall bit rate : 1 801 Kbps
Writing application : VirtualDubMod 1.5.10.3 | www.virtualdub-fr.org || (build 2550/release)
Writing library : VirtualDubMod build 2550/release

Video
ID : 0
Format : MPEG-4 Visual
Format profile : Advanced Simple@L5
Format settings, BVOP : 1
Format settings, QPel : No
Format settings, GMC : No warppoints
Format settings, Matrix : Custom
Codec ID : XVID
Codec ID/Hint : XviD
Duration : 51mn 31s
Bit rate : 1 600 Kbps
Width : 720 pixels
Height : 400 pixels
Display aspect ratio : 16:9
Frame rate : 25.000 fps
Color space : YUV
Chroma subsampling : 4:2:0
Bit depth : 8 bits
Scan type : Progressive
Compression mode : Lossy
Bits/(Pixel*Frame) : 0.222
Stream size : 590 MiB (89%)
Writing library : XviD 73

Audio
ID : 1
Format : AC-3
Format/Info : Audio Coding 3
Mode extension : CM (complete main)
Codec ID : 2000
Duration : 51mn 31s
Bit rate mode : Constant
Bit rate : 192 Kbps
Channel(s) : 2 channels
Channel positions : Front: L R
Sampling rate : 48.0 KHz
Bit depth : 16 bits
Compression mode : Lossy
Stream size : 70.8 MiB (11%)
Alignment : Split accross interleaves
Interleave, duration : 40 ms (1.00 video frame)
Interleave, preload duration : 500 ms

Внимание! Раздача ведётся путём добавления новых серий; при каждом добавлении создfётся новый торрент. Чтобы начать докачку новой серии, пользователям необходимо сделать следующее: (1) остановить скачивание, (2) удалить старый торрент у себя из клиента (старые серии удалять не надо), (3) скачать новый торрент и запустить его у себя в клиенте вместо старого, при этом указать клиенту путь в старую папку куда и должно происходить скачивание новых серий.

Ваш клиент при этом должен произвести хеширование (проверку) старой папки (если не производит сам - помогите ему сделать это), и будет докачивать только те серии которых у вас ещё нет. Старые серии при этом не удаляются, а продолжают раздаваться!

Eсли вы уже удалили старые серии, то предотвратить повторную закачку старых серий можно, отжав галочку в соответсвующих местах при запуске нового торрента.
piratbit.pw



Скачать Пёс через торрент https://i86.fastpic.ru/big/2019/1015/02/8135c4c3c4c474c2225ee5f24c26a702.jpg Скачать фильм Пёс через торрент бесплантно в хорошем качестве Описание: В новом сезоне напарникам Максу Максимову и Псу в очередной раз представится возможность доказать и показать на что же способны ... 9.5 10 4
Торрент: Зарегистрирован [2020-09-18 16:32] · скачан: 19 раз
Статус: √ проверено
Размер: 10.8 GB
Как cкачать? Как скачать Пёс через торрент | qTorrent



Последний раз редактировалось: bober100 (2020-09-18 16:32), всего редактировалось 1 раз

28-11-2019 20:33  

Отключить всю рекламу на сайте

17-09-2020 17:29 Пёс Скачать торрент  

гнездоpiratbit.pw



    Дорогой пользователь! Огромная просьба, поблагодарите релизера, оцените раздачу и оставьте свои комментарий, если Вы скачали Пёс через торрент бесплатно! Внесите свою лепту в развитие PiratBit!
    Комментировать посты могут только пользователи прошедшие не сложную регистрацию
    Показать сообщения:    

    Пёс через торрент
    Скачать бесплатно Пёс
    Пёс скачать торрент
    Пёс смотреть онлайн
    Cкачать фильм Пёс бесплатно
    Пёс скачать торрент в хорошем качестве
    Пёс смотреть онлайн бесплатно в хорошем качестве


    Вы не можете начинать темы
    Вы не можете отвечать на сообщения
    Вы не можете редактировать свои сообщения
    Вы не можете удалять свои сообщения
    Вы не можете голосовать в опросах
    Вы не можете прикреплять файлы к сообщениям
    Вы можете скачивать файлы