Marvel's Avengers Deluxe Edition (супер цена) 159р. Внимание количество ограничено!!!

2 сезон

iTunes

iTunes

1

iTunes

iTunes

iTunes

WEBRip

iTunes

30
pack

Новость дня

ВАЖНО

!!Акция!!

Alien_RageХит недели

RePack

Horizon Zero Dawn

ИГРА 18+

pack

RePack

jed

!!Акция!!

Alien_Rage

RePack

fifa19

RePack

Assassins Creed: Odyssey

RePack

NEED FOR SPEED™ PAYBACK

4 сезон

9 сезон

Бесстыжие 9 сезон

Все сериалы

все сериалы на PB.wtf

RePack

FAR CRY 5
  

Номер один (Михаил Расходников) [2020 г., комедия, WEBRip-AVC] [RUS] от MediaBit piratbit.pw

Номер один через торрент piratbit.pw

Раздают: 12 [ 197 KB/s ] Качают: 1 [ 0 KB/s ]
Размер: 752 MB | Добавлен: 6 д. назад | Торрент скачан:113 раз
Скачать  

15-09-2020 15:59 Номер один Скачать торрент  


Номер один
Информация о фильме:
Название: Номер один
Год выхода: 2020
Жанр: Комедия
Режиссер: Михаил Расходников

В ролях: Филипп Янковский, Дмитрий Власкин, Ксения Собчак, Рина Гришина, Николай Шрайбер, Мария Лобанова, Андрей Федорцов, Игорь Миркурбанов, Марина Ермошкина

Описание: Артем, молодой авантюрист, встречает Феликса — некогда легендарного похитителя предметов искусства, которого называли «Номер один». «Старая школа» и новичок решают провернуть аферу века – украсть одну из самых дорогих картин современности – «№ 1» Марка Ротко из галереи, принадлежащей бывшей жене Феликса и ее нового мужа. Волей случая Артем знакомится с Мариной и влюбляется в нее. А она оказывается следователем и очень хочет поймать Феликса с поличным.



Страна: Россия
Студия: MEGOGO Studios
Продолжительность: 01:32:22
Перевод: Не требуется



Информация о файле:
Кодек: AVC
Формат: MKV
Качество: WEBRip-AVC
Видео: MPEG-4 AVC, 720x300 (2.40:1), 23.976 fps, 1041 kbps, 0.201
Аудио RU: AAC-HE, 2 ch, 48 kHz, 96 kbps



General
Unique ID : 153611943362634049083296107568733810205 (0x7390958B19D4A063D0F511533DBAEE1D)
Complete name : D:uTorrentРипы_от_wolf1245_MediaBitNomerOdinWEBRip-AVC_wolf1245 & MediaBit.mkv
Format : Matroska
Format version : Version 4
File size : 752 MiB
Duration : 1 h 32 min
Overall bit rate : 1 138 kb/s
Movie name : Nomer_Odin_WEBRip-AVC_wolf1245 & MediaBit
Encoded date : UTC 2020-09-14 19:28:24
Writing application : mkvmerge v50.0.0 ('Awakenings') 64-bit
Writing library : libebml v1.4.0 + libmatroska v1.6.2

Video
ID : 1
Format : AVC
Format/Info : Advanced Video Codec
Format profile : High@L4.1
Format settings : CABAC / 11 Ref Frames
Format settings, CABAC : Yes
Format settings, Reference frames : 11 frames
Codec ID : V_MPEG4/ISO/AVC
Duration : 1 h 32 min
Bit rate : 1 041 kb/s
Width : 720 pixels
Height : 300 pixels
Display aspect ratio : 2.40:1
Frame rate mode : Constant
Frame rate : 23.976 (24000/1001) FPS
Color space : YUV
Chroma subsampling : 4:2:0
Bit depth : 8 bits
Scan type : Progressive
Bits/(Pixel*Frame) : 0.201
Stream size : 688 MiB (91%)
Title : wolf1245 & MediaBit
Writing library : x264 core 157 r2958 57baac4
Encoding settings : cabac=1 / ref=11 / deblock=1:-3:-3 / analyse=0x3:0x133 / me=umh / subme=11 / psy=1 / psy_rd=0.98:0.07 / mixed_ref=1 / me_range=48 / chroma_me=1 / trellis=2 / 8x8dct=1 / cqm=0 / deadzone=21,11 / fast_pskip=0 / chroma_qp_offset=-3 / threads=10 / lookahead_threads=2 / sliced_threads=0 / nr=0 / decimate=0 / interlaced=0 / bluray_compat=0 / constrained_intra=0 / bframes=11 / b_pyramid=2 / b_adapt=2 / b_bias=0 / direct=3 / weightb=1 / open_gop=0 / weightp=2 / keyint=240 / keyint_min=24 / scenecut=40 / intra_refresh=0 / rc_lookahead=60 / rc=2pass / mbtree=0 / bitrate=1041 / ratetol=1.0 / qcomp=0.60 / qpmin=0 / qpmax=69 / qpstep=4 / cplxblur=20.0 / qblur=0.5 / vbv_maxrate=50000 / vbv_bufsize=62500 / nal_hrd=none / filler=0 / ip_ratio=1.40 / pb_ratio=1.30 / aq=1:1.00
Language : Russian
Default : Yes
Forced : No

Audio
ID : 2
Format : AAC LC SBR
Format/Info : Advanced Audio Codec Low Complexity with Spectral Band Replication
Commercial name : HE-AAC
Format settings : Implicit
Codec ID : A_AAC-2
Duration : 1 h 32 min
Bit rate : 96.0 kb/s
Channel(s) : 2 channels
Channel layout : L R
Sampling rate : 48.0 kHz
Frame rate : 23.438 FPS (2048 SPF)
Compression mode : Lossy
Stream size : 63.4 MiB (8%)
Title : RUS
Language : Russian
Default : Yes
Forced : No
Релиз от: &
piratbit.pw



Скачать Номер один через торрент https://d.radikal.ru/d24/2009/72/1cf899305c12.png Скачать фильм Номер один через торрент бесплантно в хорошем качестве Описание: Артем, молодой авантюрист, встречает Феликса — некогда легендарного похитителя предметов искусства, которого называли «Номер ... 7.4 10 7
Торрент: Зарегистрирован [2020-09-15 15:59] · скачан: 113 раз
Статус: T временная
Размер: 752 MB
Как cкачать? Как скачать Номер один через торрент | qTorrent

% Раздел Тема Автор DL S | L
T Фильмы 2019-2020 [DVDrip, WEB-DLRip, HDrip] (DUB, MVO) [ 1.2 GB ] Допросная номер один / 1 Interrogation [2020 WEB-DLRip-AVC] [MVO] [MUZOBOZ@] от MediaBit Lithuania Скачать
26 | 1

28-11-2019 20:33  

Отключить всю рекламу на сайте

15-09-2020 17:15 Номер один Скачать торрент  

Оушен отдыхает piratbit.pw



15-09-2020 17:21 Номер один Скачать торрент  

такая шняга пепецpiratbit.pw



16-09-2020 09:24 Номер один Скачать торрент  

сюжет знакомый,опять скопировалиpiratbit.pw



    Дорогой пользователь! Огромная просьба, поблагодарите релизера, оцените раздачу и оставьте свои комментарий, если Вы скачали Номер один через торрент бесплатно! Внесите свою лепту в развитие PiratBit!
    Комментировать посты могут только пользователи прошедшие не сложную регистрацию
    Показать сообщения:    

    Номер один через торрент
    Скачать бесплатно Номер один
    Номер один скачать торрент
    Номер один смотреть онлайн
    Cкачать фильм Номер один бесплатно
    Номер один скачать торрент в хорошем качестве
    Номер один смотреть онлайн бесплатно в хорошем качестве


    Вы не можете начинать темы
    Вы не можете отвечать на сообщения
    Вы не можете редактировать свои сообщения
    Вы не можете удалять свои сообщения
    Вы не можете голосовать в опросах
    Вы не можете прикреплять файлы к сообщениям
    Вы можете скачивать файлы