Marvel's Avengers Deluxe Edition (супер цена) 159р. Внимание количество ограничено!!!

2 сезон

iTunes

iTunes

1

iTunes

iTunes

iTunes

WEBRip

iTunes

30
pack

Новость дня

ВАЖНО

!!Акция!!

Alien_RageХит недели

RePack

Horizon Zero Dawn

ИГРА 18+

pack

RePack

jed

!!Акция!!

Alien_Rage

RePack

fifa19

RePack

Assassins Creed: Odyssey

RePack

NEED FOR SPEED™ PAYBACK

4 сезон

9 сезон

Бесстыжие 9 сезон

Все сериалы

все сериалы на PB.wtf

RePack

FAR CRY 5
  

По небу босиком (Султан Хажироко ) [2015, мелодрама, комедия, WEB-DL 1080p] - ExKinoRay piratbit.pw

По небу босиком через торрент piratbit.pw

Раздают: 24 [ 194 KB/s ] Качают: 2 [ 0 KB/s ]
Размер: 3.48 GB | Добавлен: 7 д. назад | Торрент скачан:23 раза
Скачать  

14-09-2020 03:52 По небу босиком Скачать торрент  

Оригинальное название: По небу босиком
Год выпуска: 2015
Жанр: Мелодрама, комедия
Режиссер: Султан Хажироко
В ролях: Алан Кокаев, Милана Карагулова, Султан Хажироко, Арсенуко Масаев, Валентин Камергоев, Роза Байзуллаева, Фатима Мамаева, Юсуп Омаров, Ефрем Амирамов, Сати Казанова, Вадим Мисостов, Олег Гусейнов, Лариса Кярова, Ахмет Хамурзов, Роман Крюков, Людмила Шереметова, Басир Шибзухов

Описание: Говорят, что случайностей в жизни не бывает, что все предопределено… быть может там на небе есть такое министерство… ну, в котором все за нас решают: что и когда с нами должно произойти». С этих слов начинается история, в которой судьба играет с главными героями, превращая близких людей, в совсем незнакомых, даря им любовь и тут же забирая ее назад, сменяет радость грустью, а дружбу предательством. Но какие бы сюрпризы не преподносила жизнь — танцуй, ведь ты так молод, люби, ведь ты так одинок.



Страна: Россия
Студия: Storm Cinema
Продолжительность: 01:31:44
Перевод: Не требуется

Формат: MKV
Качество: WEB-DL 1080p
Видео: MPEG-4 AVC, 1920x1080 (16:9), 25.000 fps, 4942 Kbps, 0.095 bit/pixel
Аудио : 48 kHz, AC3, 5.1, 384 Kbps | RUS |
General
Unique ID : 188670247477729456213106495996510748061 (0x8DF091636AB79384847B0895BE3A3D9D)
Complete name : F:\По небу босиком 2015 WEB-DL 1080p.ExKinoRay.mkv
Format : Matroska
Format version : Version 2
File size : 3.48 GiB
Duration : 1 h 31 min
Overall bit rate : 5 434 kb/s
Movie name : По небу босиком 2015 from ExKinoRay
Encoded date : UTC 2020-09-13 00:19:31
Writing application : mkvmerge v5.6.0 ('Kenya Kane') built on May 27 2012 16:44:04
Writing library : libebml v1.2.3 + libmatroska v1.3.0

Video
ID : 1
Format : AVC
Format/Info : Advanced Video Codec
Format profile : High@L4
Format settings, CABAC : Yes
Format settings, ReFrames : 4 frames
Codec ID : V_MPEG4/ISO/AVC
Duration : 1 h 31 min
Bit rate : 4 942 kb/s
Width : 1 920 pixels
Height : 1 080 pixels
Display aspect ratio : 16:9
Frame rate mode : Constant
Frame rate : 25.000 FPS
Color space : YUV
Chroma subsampling : 4:2:0
Bit depth : 8 bits
Scan type : Progressive
Bits/(Pixel*Frame) : 0.095
Stream size : 3.17 GiB (91%)
Language : Russian
Default : Yes
Forced : No
Color range : Limited
Color primaries : BT.709
Transfer characteristics : BT.709
Matrix coefficients : BT.709

Audio
ID : 2
Format : AC-3
Format/Info : Audio Coding 3
Mode extension : CM (complete main)
Format settings, Endianness : Big
Codec ID : A_AC3
Duration : 1 h 31 min
Bit rate mode : Constant
Bit rate : 384 kb/s
Channel(s) : 6 channels
Channel positions : Front: L C R, Side: L R, LFE
Sampling rate : 48.0 kHz
Frame rate : 31.250 FPS (1536 spf)
Compression mode : Lossy
Stream size : 252 MiB (7%)
Language : Russian
Default : Yes
Forced : No

Menu
00:00:00.000 : en:Глава 1
00:06:18.040 : en:Глава 2
00:11:39.280 : en:Глава 3
00:16:54.480 : en:Глава 4
00:22:38.600 : en:Глава 5
00:26:51.720 : en:Глава 6
00:33:46.160 : en:Глава 7
00:39:04.200 : en:Глава 8
00:45:57.480 : en:Глава 9
00:53:17.080 : en:Глава 10
00:59:31.520 : en:Глава 11
01:03:28.640 : en:Глава 12
01:08:12.760 : en:Глава 13
01:16:37.560 : en:Глава 14
01:25:51.840 : en:Глава 15


Релиз от:

Автор релиза: piratbit.pw



Скачать По небу босиком через торрент https://c.radikal.ru/c15/2009/f7/12c98700abd6.jpg Скачать фильм По небу босиком через торрент бесплантно в хорошем качестве Описание: Говорят, что случайностей в жизни не бывает, что все предопределено… быть может там на небе есть такое министерство… ну, в ... 10 10 1
Info! Золотая раздача, скачанное не засчитывается.
Торрент: Зарегистрирован [2020-09-14 03:52] · скачан: 23 раз
Статус: √ проверено
Размер: 3.48 GB
Как cкачать? Как скачать По небу босиком через торрент | qTorrent

28-11-2019 20:33  

Отключить всю рекламу на сайте

    Дорогой пользователь! Огромная просьба, поблагодарите релизера, оцените раздачу и оставьте свои комментарий, если Вы скачали По небу босиком через торрент бесплатно! Внесите свою лепту в развитие PiratBit!
    Комментировать посты могут только пользователи прошедшие не сложную регистрацию
    Показать сообщения:    

    По небу босиком через торрент
    Скачать бесплатно По небу босиком
    По небу босиком скачать торрент
    По небу босиком смотреть онлайн
    Cкачать фильм По небу босиком бесплатно
    По небу босиком скачать торрент в хорошем качестве
    По небу босиком смотреть онлайн бесплатно в хорошем качестве


    Вы не можете начинать темы
    Вы не можете отвечать на сообщения
    Вы не можете редактировать свои сообщения
    Вы не можете удалять свои сообщения
    Вы не можете голосовать в опросах
    Вы не можете прикреплять файлы к сообщениям
    Вы можете скачивать файлы