Ссылка на приватное зеркало нашего сайта всего за 1$. Внимание количество ограничено!!!

2 сезон

iTunes

iTunes

1

iTunes

iTunes

iTunes

WEBRip

iTunes

30
pack

Вам бонус

ВАЖНО

!!Акция!!

Alien_RageХит недели

RePack

Horizon Zero Dawn

ИГРА 18+

pack

RePack

jed

!!Акция!!

Alien_Rage

RePack

fifa19

RePack

Assassins Creed: Odyssey

RePack

NEED FOR SPEED™ PAYBACK

4 сезон

9 сезон

Бесстыжие 9 сезон

Все сериалы

все сериалы на PB.wtf

RePack

FAR CRY 5
  

Королева (Таисия Игуменцева) [2020 г., Комедия, WEB-DLRip-AVC] [iTunes] от MediaBit piratbit.pw

Королева через торрент piratbit.pw

Раздают: 5 [ 0 KB/s ]
Размер: 749 MB | Добавлен: 11 д. назад | Торрент скачан:66 раз
Скачать  

13-09-2020 17:30 Королева Скачать торрент  


Королева
Информация о фильме:
Название: Королева
Год выхода: 2020
Жанр: Комедия
Режиссер: Таисия Игуменцева

В ролях: Татьяна Струженкова, Валерия Ёлкина, Данил Акутин, Егор Кенжаметов, Полина Кутепова, Максим Виторган, Софья Лебедева, Дарья Коныжева, Роман Плопер, Татьяна Рыбинец

Описание: Настя - талантливая спортсменка, популярный блогер и первая красавица школы. Когда в класс приходит новенький, она ставит перед собой цель завоевать его внимание, но наталкивается на безразличие с его стороны. На что ей придётся пойти ради победы?



Страна: Россия
Студия: Марс Медиа Энтертейнмент
Продолжительность: 01:27:33
Перевод: Не требуется | iTunes



Информация о файле:
Кодек: AVC
Формат: MKV
Качество: WEB-DLRip-AVC
Видео: MPEG-4 AVC, 720x322 (2.25:1), 24.000 fps, 1095 kbps, 0.197
Аудио RU: AAC-HE, 2 ch, 48 kHz, 96 kbps
Навигация по главам: Да



x264 info: frame I:1138 Avg QP:14.16 size: 39000
x264 info: frame P:33808 Avg QP:17.47 size: 11311
x264 info: frame B:91117 Avg QP:19.74 size: 3179
x264 info: consecutive B-frames: 3.0% 5.0% 6.3% 68.6% 5.8% 9.4% 0.8% 0.6% 0.1% 0.1% 0.1% 0.3%
==================================
General
Unique ID : 95059301212094335904599977766034599238 (0x4783C166762AF57A70784D4B5C1FED46)
Complete name : D:uTorrentРипы_от_wolf1245_MediaBitKOROLEVA_2020_WEB-DLRip-AVC_wolf1245 & MediaBit.mkv
Format : Matroska
Format version : Version 4
File size : 749 MiB
Duration : 1 h 27 min
Overall bit rate : 1 197 kb/s
Movie name : KOROLEVA_2020_WEB-DLRip-AVC_wolf1245 & MediaBit
Encoded date : UTC 2020-09-13 17:18:41
Writing application : mkvmerge v50.0.0 ('Awakenings') 64-bit
Writing library : libebml v1.4.0 + libmatroska v1.6.2
Cover : Yes
Attachments : cover

Video
ID : 1
Format : AVC
Format/Info : Advanced Video Codec
Format profile : High@L4.1
Format settings : CABAC / 11 Ref Frames
Format settings, CABAC : Yes
Format settings, Reference frames : 11 frames
Codec ID : V_MPEG4/ISO/AVC
Duration : 1 h 27 min
Bit rate : 1 095 kb/s
Width : 720 pixels
Height : 322 pixels
Display aspect ratio : 2.25:1
Frame rate mode : Constant
Frame rate : 24.000 FPS
Color space : YUV
Chroma subsampling : 4:2:0
Bit depth : 8 bits
Scan type : Progressive
Bits/(Pixel*Frame) : 0.197
Stream size : 683 MiB (91%)
Title : wolf1245 & MediaBit
Writing library : x264 core 157 r2958 57baac4
Encoding settings : cabac=1 / ref=11 / deblock=1:-3:-3 / analyse=0x3:0x133 / me=umh / subme=11 / psy=1 / psy_rd=0.98:0.07 / mixed_ref=1 / me_range=48 / chroma_me=1 / trellis=2 / 8x8dct=1 / cqm=0 / deadzone=21,11 / fast_pskip=0 / chroma_qp_offset=-3 / threads=10 / lookahead_threads=2 / sliced_threads=0 / nr=0 / decimate=0 / interlaced=0 / bluray_compat=0 / constrained_intra=0 / bframes=11 / b_pyramid=2 / b_adapt=2 / b_bias=0 / direct=3 / weightb=1 / open_gop=0 / weightp=2 / keyint=240 / keyint_min=24 / scenecut=40 / intra_refresh=0 / rc_lookahead=60 / rc=2pass / mbtree=0 / bitrate=1095 / ratetol=1.0 / qcomp=0.60 / qpmin=0 / qpmax=69 / qpstep=4 / cplxblur=20.0 / qblur=0.5 / vbv_maxrate=50000 / vbv_bufsize=62500 / nal_hrd=none / filler=0 / ip_ratio=1.40 / pb_ratio=1.30 / aq=1:1.00
Language : Russian
Default : Yes
Forced : No
Color range : Limited
Color primaries : BT.709
Transfer characteristics : BT.709
Matrix coefficients : BT.709

Audio
ID : 2
Format : AAC LC SBR
Format/Info : Advanced Audio Codec Low Complexity with Spectral Band Replication
Commercial name : HE-AAC
Format settings : Implicit
Codec ID : A_AAC-2
Duration : 1 h 27 min
Bit rate : 96.0 kb/s
Channel(s) : 2 channels
Channel layout : L R
Sampling rate : 48.0 kHz
Frame rate : 23.438 FPS (2048 SPF)
Compression mode : Lossy
Stream size : 60.1 MiB (8%)
Title : ORIGINAL / iTunes
Language : Russian
Default : Yes
Forced : No

Menu
00:00:00.000 : :Глава 1
00:05:47.083 : :Глава 2
00:11:14.124 : :Глава 3
00:20:00.957 : :Глава 4
00:25:39.082 : :Глава 5
00:33:06.290 : :Глава 6
00:43:17.290 : :Глава 7
00:50:46.831 : :Глава 8
00:56:16.706 : :Глава 9
01:00:34.831 : :Глава 10
01:08:30.706 : :Глава 11
01:18:29.331 : :Глава 12
Релиз от: &
piratbit.pw



Скачать Королева через торрент https://i2.imageban.ru/out/2020/09/10/bc674e2a61e509b1f8f833bf8c97ca4d.jpg Скачать фильм Королева через торрент бесплантно в хорошем качестве Описание: Настя - талантливая спортсменка, популярный блогер и первая красавица школы. Когда в класс приходит новенький, она ставит ... 7.8 10 8
Торрент: Зарегистрирован [2020-09-13 17:30] · скачан: 66 раз
Статус: √ проверено
Размер: 749 MB
Как cкачать? Как скачать Королева через торрент | qTorrent

% Раздел Тема Автор DL S | L
Фильмы 2019-2020 [DVDrip, WEB-DLRip, HDrip] (DUB, MVO) [ 750 MB ] Няня. Королева проклятых / The Babysitter: Killer Queen [2020 WEB-DLRip-AVC] [MVO] [HDRezka Studio] от MediaBit Lithuania Скачать
3 | 0

28-11-2019 20:33  

Отключить всю рекламу на сайте

    Дорогой пользователь! Огромная просьба, поблагодарите релизера, оцените раздачу и оставьте свои комментарий, если Вы скачали Королева через торрент бесплатно! Внесите свою лепту в развитие PiratBit!
    Комментировать посты могут только пользователи прошедшие не сложную регистрацию
    Показать сообщения:    

    Королева через торрент
    Скачать бесплатно Королева
    Королева скачать торрент
    Королева смотреть онлайн
    Cкачать фильм Королева бесплатно
    Королева скачать торрент в хорошем качестве
    Королева смотреть онлайн бесплатно в хорошем качестве


    Вы не можете начинать темы
    Вы не можете отвечать на сообщения
    Вы не можете редактировать свои сообщения
    Вы не можете удалять свои сообщения
    Вы не можете голосовать в опросах
    Вы не можете прикреплять файлы к сообщениям
    Вы можете скачивать файлы