Ссылка на приватное зеркало нашего сайта всего за 1$. Внимание количество ограничено!!!

2 сезон

iTunes

1 сезон

1

2 сезон

2 сезон

iTunes

1 сезон

RePack

30

Ultimate

ВАЖНО

ИГРА 18+

pack

RePack

MK11
pack

Забери бонус

RePack

jed

!!Акция!!

Alien_Rage

RePack

fifa19

RePack

Assassins Creed: Odyssey

RePack

NEED FOR SPEED™ PAYBACK

4 сезон

9 сезон

Бесстыжие 9 сезон

Все сериалы

все сериалы на PB.wtf

RePack

FAR CRY 5
  

Сила стихии / Сила природы / Force of Nature (Майкл Полиш) [2020, Боевик, драма, BDRip-AVC] DUB [iTunes] - ExKinoRay piratbit.pw

Сила стихии через торрент piratbit.pw

Раздают: 16 [ 0 KB/s ]
Размер: 2.01 GB | Добавлен: 2 мес. 21 д. назад | Торрент скачан:114 раз
Скачать  

13-09-2020 02:12 Сила стихии Скачать торрент  

Название: Сила стихии
Оригинальное название: Force of Nature
Год выхода: 2020
Жанр: Драма, боевик
Режиссер: Майкл Полиш
В ролях: Мэл Гибсон, Кейт Босворт, Эмиль Хирш, Дэвид Зайас, Стефани Кайо, Тайлер Джон Олсон, Уильям Кэтлетт, Джаспер Полиш, Свен Теммел, Джеси Маккинни

О фильме: Во время урагана группа вооруженных бандитов пытается провернуть ограбление в здании опустевшей высотки. Они вступают в борьбу с полицейскими, руководящими эвакуацией, и с одним отставным офицером, отказавшимся от убежища. В небоскребе начинается смертельное преследование и перестрелка на фоне бушующей стихии.

rating

Страна: США
Студия: Emmett/Furla Films, FON Film Production, Force of Nature Film
Продолжительность: 01:31:06
Перевод: Дублированный | iTunes

***дублированный перевод iTunes, со вставками профессионального многоголосого перевода от HDRezka Studio (около пяти минут)(за звук спасибо селезень)

Формат: MKV
Качество: BDRip-AVC
Исходник: Force.of.Nature.2020.1080p.BluRay.REMUX.AVC.DTS-HD.MA.5.1-FGT
Видео: MPEG-4 AVC, 1024x428 (2.40:1), 23.976 fps, 2780 Kbps, 0.265 bit/pixel
Аудио : 48 kHz, AC3, 5.1, 384 Kbps | RUS |
Субтитры: Русские (Forced), английские
General
Unique ID : 221860963455920280612603069261835090986 (0xA6E8DE0770D10687809EDF05C0B33C2A)
Complete name : F:\Force.of.Nature.2020.iTunes.BDRip.AVC.ExKinoRay.mkv
Format : Matroska
Format version : Version 2
File size : 2.01 GiB
Duration : 1 h 31 min
Overall bit rate : 3 163 kb/s
Movie name : Force of Nature 2020 from ExKinoRay
Encoded date : UTC 2020-09-13 01:17:37
Writing application : mkvmerge v5.6.0 ('Kenya Kane') built on May 27 2012 16:44:04
Writing library : libebml v1.2.3 + libmatroska v1.3.0

Video
ID : 1
Format : AVC
Format/Info : Advanced Video Codec
Format profile : High@L4.1
Format settings, CABAC : Yes
Format settings, ReFrames : 12 frames
Codec ID : V_MPEG4/ISO/AVC
Duration : 1 h 31 min
Bit rate : 2 780 kb/s
Width : 1 024 pixels
Height : 428 pixels
Display aspect ratio : 2.40:1
Frame rate mode : Constant
Frame rate : 23.976 (23976/1000) FPS
Color space : YUV
Chroma subsampling : 4:2:0
Bit depth : 8 bits
Scan type : Progressive
Bits/(Pixel*Frame) : 0.265
Stream size : 1.73 GiB (86%)
Title : Enigma
Writing library : x264 core 152 r2851 ba24899
Encoding settings : cabac=1 / ref=12 / deblock=1:-2:-2 / analyse=0x3:0x113 / me=umh / subme=10 / psy=1 / psy_rd=0.98:0.05 / mixed_ref=1 / me_range=32 / chroma_me=1 / trellis=2 / 8x8dct=1 / cqm=0 / deadzone=21,11 / fast_pskip=0 / chroma_qp_offset=-3 / threads=12 / lookahead_threads=3 / sliced_threads=0 / nr=0 / decimate=0 / interlaced=0 / bluray_compat=0 / constrained_intra=0 / bframes=10 / b_pyramid=2 / b_adapt=2 / b_bias=0 / direct=3 / weightb=1 / open_gop=0 / weightp=2 / keyint=240 / keyint_min=23 / scenecut=40 / intra_refresh=0 / rc=2pass / mbtree=0 / bitrate=2780 / ratetol=1.0 / qcomp=0.60 / qpmin=0 / qpmax=51 / qpstep=4 / cplxblur=20.0 / qblur=0.5 / ip_ratio=1.40 / pb_ratio=1.30 / aq=2:0.80
Language : English
Default : Yes
Forced : No
Color range : Limited
Color primaries : BT.709
Transfer characteristics : BT.709
Matrix coefficients : BT.709

Audio
ID : 2
Format : AC-3
Format/Info : Audio Coding 3
Mode extension : CM (complete main)
Format settings, Endianness : Big
Codec ID : A_AC3
Duration : 1 h 31 min
Bit rate mode : Constant
Bit rate : 384 kb/s
Channel(s) : 6 channels
Channel positions : Front: L C R, Side: L R, LFE
Sampling rate : 48.0 kHz
Frame rate : 31.250 FPS (1536 spf)
Compression mode : Lossy
Stream size : 250 MiB (12%)
Title : iTunes
Language : Russian
Default : Yes
Forced : No

Text #1
ID : 3
Format : UTF-8
Codec ID : S_TEXT/UTF8
Codec ID/Info : UTF-8 Plain Text
Title : Forced
Language : Russian
Default : Yes
Forced : No

Text #2
ID : 4
Format : UTF-8
Codec ID : S_TEXT/UTF8
Codec ID/Info : UTF-8 Plain Text
Title : Full
Language : English
Default : No
Forced : No

Menu
00:00:00.000 : en:Chapter 01
00:06:31.474 : en:Chapter 02
00:13:17.129 : en:Chapter 03
00:16:04.672 : en:Chapter 04
00:21:07.975 : en:Chapter 05
00:26:09.568 : en:Chapter 06
00:31:58.374 : en:Chapter 07
00:37:10.394 : en:Chapter 08
00:43:02.121 : en:Chapter 09
00:49:38.558 : en:Chapter 10
00:56:44.734 : en:Chapter 11
01:00:58.905 : en:Chapter 12
01:07:58.282 : en:Chapter 13
01:12:43.150 : en:Chapter 14
01:17:51.583 : en:Chapter 15
01:24:53.254 : en:Chapter 16




Релиз от:

Автор релиза: piratbit.pw



Скачать Сила стихии через торрент http://i112.fastpic.ru/big/2020/0621/cd/a909dc0efc0fb4f58383afcfa90c1acd.jpg Скачать фильм Сила стихии через торрент бесплантно в хорошем качестве О фильме: Во время урагана группа вооруженных бандитов пытается провернуть ограбление в здании опустевшей высотки. Они вступают в борьбу ... 7.8 10 4
Info! Золотая раздача, скачанное не засчитывается.
Торрент: Зарегистрирован [2020-09-13 02:12] · скачан: 114 раз
Статус: √ проверено
Размер: 2.01 GB
Как cкачать? Как скачать Сила стихии через торрент | qTorrent

28-11-2019 20:33  

Отключить всю рекламу на сайте

    Дорогой пользователь! Огромная просьба, поблагодарите релизера, оцените раздачу и оставьте свои комментарий, если Вы скачали Сила стихии через торрент бесплатно! Внесите свою лепту в развитие PiratBit!
    Комментировать посты могут только пользователи прошедшие не сложную регистрацию
    Показать сообщения:    

    Сила стихии через торрент
    Скачать бесплатно Сила стихии
    Сила стихии скачать торрент
    Сила стихии смотреть онлайн
    Cкачать фильм Сила стихии бесплатно
    Сила стихии скачать торрент в хорошем качестве
    Сила стихии смотреть онлайн бесплатно в хорошем качестве


    Вы не можете начинать темы
    Вы не можете отвечать на сообщения
    Вы не можете редактировать свои сообщения
    Вы не можете удалять свои сообщения
    Вы не можете голосовать в опросах
    Вы не можете прикреплять файлы к сообщениям
    Вы можете скачивать файлы