Ссылка на приватное зеркало нашего сайта всего за 1$. Внимание количество ограничено!!!

2 сезон

iTunes

iTunes

1

iTunes

iTunes

iTunes

WEBRip

iTunes

30
pack

Вам бонус

ВАЖНО

!!Акция!!

Alien_RageХит недели

RePack

Horizon Zero Dawn

ИГРА 18+

pack

RePack

jed

!!Акция!!

Alien_Rage

RePack

fifa19

RePack

Assassins Creed: Odyssey

RePack

NEED FOR SPEED™ PAYBACK

4 сезон

9 сезон

Бесстыжие 9 сезон

Все сериалы

все сериалы на PB.wtf

RePack

FAR CRY 5
  

Операция «Хромит» / Operation Chromite (Джон Х. Ли) [2016 г., Боевик, драма, военный, история, HDRip-AVC] [MVO] [IVI] от MediaBit piratbit.pw

Операция «Хромит» через торрент piratbit.pw

Раздают: 1 [ 0 KB/s ]
Размер: 2.45 GB | Добавлен: 12 д. назад | Торрент скачан:29 раз
Скачать  

12-09-2020 19:27 Операция «Хромит» Скачать торрент  


Операция «Хромит» / Incheonsangryukjakjeon / Battle for Incheon: Operation Chromite

Информация о фильме:
Название: Операция «Хромит»
Оригинальное название: Incheonsangryukjakjeon / Battle for Incheon: Operation Chromite
Год выхода: 2016
Жанр: боевик, драма, военный, история
Режиссер: Джон Х. Ли

В ролях: Чжон Чжэ Ли, Лиам Нисон, Бом Су Ли, Сон А Ким, Чжун Хо Чон, Се Ён Чжин, Чхоль Мин Пак, Йошихиро Акияма, Бён Ок Ким, Ён Э Ким, Сон Ун Пак, Чжин У Ким (II)

Описание: Лето 1950 года. Самый разгар Корейской войны. Армия северян вторглась через границу, захватила Сеул и оттеснила остатки южнокорейских войск и сил ООН за Пусанский периметр. 95% полуострова уже принадлежит солдатам Ким Ир Сена, но в Пусан прибывает 70-летний генерал США Дуглас Макартур, получивший от ООН все полномочия на ведение наземных операций.

rating

Страна: Корея Южная
Студия: Taewon Entertainment
Продолжительность: 01:51:02
Перевод: Профессиональный (многоголосый, закадровый) - IVI



Информация о файле:
Кодек: AVC
Формат: MKV
Качество: HDRip-AVC
Видео: MPEG-4 AVC, 1024x430 (2.40:1), 2522 kbps, 23.976 fps, 0.239
Аудио RU: AC3, 2 ch, 48 kHz, 192 kbps
Аудио EN: AC3, 6 ch, 48 kHz, 384 kbps
Навигация по главам: Да



x264 info: frame I:1569 Avg QP:16.18 size: 67639
x264 info: frame P:36846 Avg QP:18.89 size: 25204
x264 info: frame B:121310 Avg QP:20.63 size: 8768
x264 info: consecutive B-frames: 3.6% 4.6% 8.6% 18.2% 14.5% 34.5% 8.7% 5.0% 1.5% 0.2% 0.3% 0.3%

General
Unique ID : 239072902597498374352196109053202608965 (0xB3DBC425B5C506C30FD6E4A836A13345)
Complete name : D:uTorrentРипы_от_wolf1245_MediaBitBattle for Incheon Operation Chromite (2016) HDRip-AVC from wolf1245 & MediaBit.mkv
Format : Matroska
Format version : Version 4
File size : 2.45 GiB
Duration : 1 h 51 min
Overall bit rate : 3 161 kb/s
Movie name : Incheonsangryukjakjeon / Battle for Incheon: Operation Chromite (2016) HDRip-AVC from wolf1245 & MediaBit
Encoded date : UTC 2020-09-12 19:04:57
Writing application : mkvmerge v50.0.0 ('Awakenings') 64-bit
Writing library : libebml v1.4.0 + libmatroska v1.6.2

Video
ID : 1
Format : AVC
Format/Info : Advanced Video Codec
Format profile : High@L4.1
Format settings : CABAC / 11 Ref Frames
Format settings, CABAC : Yes
Format settings, Reference frames : 11 frames
Codec ID : V_MPEG4/ISO/AVC
Duration : 1 h 51 min
Bit rate : 2 522 kb/s
Width : 1 024 pixels
Height : 430 pixels
Display aspect ratio : 2.40:1
Frame rate mode : Constant
Frame rate : 23.976 (24000/1001) FPS
Color space : YUV
Chroma subsampling : 4:2:0
Bit depth : 8 bits
Scan type : Progressive
Bits/(Pixel*Frame) : 0.239
Stream size : 1.95 GiB (80%)
Title : wolf1245 & MediaBit
Writing library : x264 core 157 r2958 57baac4
Encoding settings : cabac=1 / ref=11 / deblock=1:-3:-3 / analyse=0x3:0x133 / me=umh / subme=11 / psy=1 / psy_rd=1.00:0.15 / mixed_ref=1 / me_range=48 / chroma_me=1 / trellis=2 / 8x8dct=1 / cqm=0 / deadzone=21,11 / fast_pskip=0 / chroma_qp_offset=-3 / threads=10 / lookahead_threads=2 / sliced_threads=0 / nr=0 / decimate=0 / interlaced=0 / bluray_compat=0 / constrained_intra=0 / bframes=11 / b_pyramid=2 / b_adapt=2 / b_bias=0 / direct=3 / weightb=1 / open_gop=0 / weightp=2 / keyint=240 / keyint_min=24 / scenecut=40 / intra_refresh=0 / rc_lookahead=60 / rc=2pass / mbtree=0 / bitrate=2522 / ratetol=1.0 / qcomp=0.60 / qpmin=0 / qpmax=69 / qpstep=4 / cplxblur=20.0 / qblur=0.5 / vbv_maxrate=50000 / vbv_bufsize=62500 / nal_hrd=none / filler=0 / ip_ratio=1.40 / pb_ratio=1.30 / aq=2:1.00
Language : Korean
Default : Yes
Forced : No
Color range : Limited
Matrix coefficients : BT.709

Audio #1
ID : 2
Format : AC-3
Format/Info : Audio Coding 3
Commercial name : Dolby Digital
Codec ID : A_AC3
Duration : 1 h 50 min
Bit rate mode : Constant
Bit rate : 192 kb/s
Channel(s) : 2 channels
Channel layout : L R
Sampling rate : 48.0 kHz
Frame rate : 31.250 FPS (1536 SPF)
Compression mode : Lossy
Stream size : 152 MiB (6%)
Title : MVO | IVI
Language : Russian
Service kind : Complete Main
Default : Yes
Forced : No

Audio #2
ID : 3
Format : AC-3
Format/Info : Audio Coding 3
Commercial name : Dolby Digital
Codec ID : A_AC3
Duration : 1 h 51 min
Bit rate mode : Constant
Bit rate : 448 kb/s
Channel(s) : 6 channels
Channel layout : L R C LFE Ls Rs
Sampling rate : 48.0 kHz
Frame rate : 31.250 FPS (1536 SPF)
Compression mode : Lossy
Stream size : 356 MiB (14%)
Title : Original
Language : English
Service kind : Complete Main
Default : No
Forced : No

Menu
00:00:00.000 : :00:00:00.000
00:11:22.557 : :00:11:22.557
00:21:01.761 : :00:21:01.761
00:29:39.695 : :00:29:39.695
00:42:40.391 : :00:42:40.391
00:51:47.104 : :00:51:47.104
01:02:27.827 : :01:02:27.827
01:14:15.326 : :01:14:15.326
01:22:35.367 : :01:22:35.367
01:28:46.571 : :01:28:46.571
01:37:56.579 : :01:37:56.579
Релиз от: &
piratbit.pw



Скачать Операция «Хромит» через торрент https://a.radikal.ru/a35/2009/58/cf3798958616.png Скачать фильм Операция «Хромит» через торрент бесплантно в хорошем качестве Описание: Лето 1950 года. Самый разгар Корейской войны. Армия северян вторглась через границу, захватила Сеул и оттеснила остатки ... 10 10 3
Торрент: Зарегистрирован [2020-09-12 19:27] · скачан: 29 раз
Статус: T временная
Размер: 2.45 GB
Как cкачать? Как скачать Операция «Хромит» через торрент | qTorrent

28-11-2019 20:33  

Отключить всю рекламу на сайте

    Дорогой пользователь! Огромная просьба, поблагодарите релизера, оцените раздачу и оставьте свои комментарий, если Вы скачали Операция «Хромит» через торрент бесплатно! Внесите свою лепту в развитие PiratBit!
    Комментировать посты могут только пользователи прошедшие не сложную регистрацию
    Показать сообщения:    

    Операция «Хромит» через торрент
    Скачать бесплатно Операция «Хромит»
    Операция «Хромит» скачать торрент
    Операция «Хромит» смотреть онлайн
    Cкачать фильм Операция «Хромит» бесплатно
    Операция «Хромит» скачать торрент в хорошем качестве
    Операция «Хромит» смотреть онлайн бесплатно в хорошем качестве


    Вы не можете начинать темы
    Вы не можете отвечать на сообщения
    Вы не можете редактировать свои сообщения
    Вы не можете удалять свои сообщения
    Вы не можете голосовать в опросах
    Вы не можете прикреплять файлы к сообщениям
    Вы можете скачивать файлы