1 сезон

1 сезон

iTunes

1

КиноПоиск HD

Кинопоиск HD

iTunes

13

1 сезон

RePack

30

Новинка

ВАЖНО

ИГРА 18+

pack

RePack

MK11
pack

Легкие деньги

RePack

jed

RePack

fifa19

RePack

RDR2

RePack

NEED FOR SPEED™ PAYBACK

4 сезон

9 сезон

Бесстыжие 9 сезон

Все сериалы

все сериалы на PB.wtf

RePack

FAR CRY 5
  
Magnet ссылка

Подвиды / Subspecies (Тед Николау) [1991 г., Ужасы, фэнтези, BDRip (1080p), Авторский (одноголосый)] piratbit.pw

Подвиды через торрент piratbit.pw

Размер: 7.37 GB | Добавлен: 7 мес. назад | Торрент скачан:5 раз
Скачать  

12-09-2020 11:25 Подвиды Скачать торрент  

Подвиды / Subspecies
Год выпуска: 1991
Страна: США
Жанр: Ужасы, фэнтези
Продолжительность: 01:23:06
Перевод: Авторский (А. Гаврилов)+Авторский (М. Иванов) +Оригинал
Субтитры: нет

Режиссер: Тед Николау

В ролях: Энгус Скримм, Андерс Хове, Ирина Мовила, Лаура Тейт, Мишель МакБрайд, Иван Дж. Радо, Мара Григоре, Адриан Вылку, Майкл Уотсон, Лили Думитреску

Описание: Три студентки отправляются в этнографическую экспедицию, как раз в Трансильванию, в заброшенное селение по соседству со средневековым замком. Некто Стефан, тоже исследователь, берется им помочь в научных поисках.
Первый день после прибытия проходит в нормальном рабочем ритме. А потом наступает ночь — ночь вампиров, за ней следующая, и этому ужасу не будет конца…

Качество: BDRip (1080p)
Формат: MKV
Видео кодек: AVC
Аудио кодек: AC3
Видео: MPEG-4 AVC, (1916x1080),12000 Кбит/с, 23.976 кадра/сек
Аудио#1: AC3, 2 ch, 256 kbps (Rus) 48.0 KHz Авторский (А. Гаврилов)
Аудио#2: AC3, 2 ch, 192 kbps (Rus) 48.0 KHz Авторский (М. Иванов)
Аудио#3: AC3, 2 ch, 256 kbps (Eng) 48.0 KHz Оригинал
скриншот   скриншот   скриншот  

Имя файла: Подвиды 1 (Subspecies) 1991 BDRip 1080p.mkv
Формат файла: .mkv (Matroska)
Размер файла: 7,37 GB (7 917 095 259 bytes)
Длительность: 1h 23mn
Навигация по главам: Нет
Битрейт (все потоки): 12.7 Mbps
Файл создан: UTC 2016-08-05 08:09:24
Создан при помощи: mkvmerge v4.0.0 ('The Stars were mine') сборка от Jun 6 2010 16:18:42
Использовалась библиотека: libebml v1.0.0 + libmatroska v1.0.0
Обложка: Отсутствует
:
Название: Подвиды 1 (Subspecies) 1991 BDRip 1080p
:
Тип потока: Видео
Длительность: 01:23:06
Кодек: AVC
Кодек/описание: Advanced Video Codec
Кодек/профиль: High@L4.1
Кодек/ID: V_MPEG4/ISO/AVC
Кодек/CABAC: Yes
Кодек/ReFrames: 4 frames
Размеры изображения: 1916 x 1080 (16:9)
Частота кадров: 23.976 fps
Частота кадров/тип: Constant
Размер потока: 6.82 GiB (92%)
Битрейт: 12.0 Mbps
Библиотека кодирования: x264 core 146 r2538 121396c
Цветовое пространство: YUV
Тип развёртки: Progressive
Колориметрия: 4:2:0
Глубина: 8 bits
Настройки кодирования: cabac=1 / ref=4 / deblock=1:-3:-3 / analyse=0x3:0x133 / me=umh / subme=11 / psy=1 / psy_rd=1.00:0.00 / mixed_ref=1 / me_range=32 / chroma_me=1 / trellis=2 / 8x8dct=1 / cqm=0 / deadzone=21,11 / fast_pskip=0 / chroma_qp_offset=-2 / threads=12 / lookahead_threads=2 / sliced_threads=0 / nr=0 / decimate=0 / interlaced=0 / bluray_compat=0 / constrained_intra=0 / bframes=12 / b_pyramid=2 / b_adapt=2 / b_bias=0 / direct=3 / weightb=1 / open_gop=0 / weightp=2 / keyint=240 / keyint_min=23 / scenecut=40 / intra_refresh=0 / rc=2pass / mbtree=0 / bitrate=12000 / ratetol=1.0 / qcomp=0.60 / qpmin=0 / qpmax=69 / qpstep=4 / cplxblur=20.0 / qblur=0.5 / ip_ratio=1.40 / pb_ratio=1.30 / aq=1:0.80
:
Тип потока: Звук #1
Язык: Russian
Название: AVO Гаврилов Андрей Юрьевич
Длительность: 01:23:06.304
Кодек: AC-3
Кодек/описание: Audio Coding 3
Кодек/ID: A_AC3
Частота дискретизации: 48.0 KHz
Каналов: 2 channels
Битрейт: 256 Kbps
Битрейт/тип: Constant
Размер потока: 152 MiB (2%)
Глубина: 16 bits
Метод сжатия: Lossy
:
Тип потока: Звук #2
Язык: Russian
Название: AVO Иванов Михаил Николаевич
Длительность: 01:23:06.304
Кодек: AC-3
Кодек/описание: Audio Coding 3
Кодек/ID: A_AC3
Частота дискретизации: 48.0 KHz
Каналов: 2 channels
Битрейт: 192 Kbps
Битрейт/тип: Constant
Размер потока: 114 MiB (2%)
Глубина: 16 bits
Метод сжатия: Lossy
:
Тип потока: Звук #3
Язык: English
Длительность: 01:23:06.304
Кодек: AC-3
Кодек/описание: Audio Coding 3
Кодек/ID: A_AC3
Частота дискретизации: 48.0 KHz
Каналов: 2 channels
Битрейт: 256 Kbps
Битрейт/тип: Constant
Размер потока: 152 MiB (2%)
Глубина: 16 bits
Метод сжатия: Lossy

piratbit.pw



Скачать Подвиды через торрент https://pic1.kartinco.top/images/12/4vv9f.jpg Скачать фильм Подвиды через торрент бесплантно в хорошем качестве Описание: Три студентки отправляются в этнографическую экспедицию, как раз в Трансильванию, в заброшенное селение по соседству со ... 10 10 2
Торрент: Зарегистрирован [2020-09-12 11:25] · скачан: 5 раз
Статус: √ проверено
Размер: 7.37 GB
Как cкачать? Как скачать Подвиды через торрент | UTorrent

% Раздел Тема Автор DL S | L
Фильмы с авторской озвучкой [ 4.07 GB ] Подвиды 3: Жажда Крови / Subspecies III: Bloodlust [1994 BDRip 720p] AVO [А.Гаврилов] Леонид Ильич Скачать
1 | 0
Фильмы с авторской озвучкой [ 4.22 GB ] Подвиды 2: Кровавый камень / Subspecies 2: Bloodstone [1993 BDRip 720p] AVO [Гаврилов] Леонид Ильич Скачать
1 | 0
Фильмы с авторской озвучкой [ 4.59 GB ] Подвиды / Subspecies [1991 BDRip 720p] 3xAVO [Гаврилов Иванов Дохалов] Леонид Ильич Скачать
1 | 0

28-11-2019 20:33  

Отключить всю рекламу на сайте

12-09-2020 12:31 Подвиды Скачать торрент  

Топик был перенесен из форума Фильмы [HD 720p, 1080p] (Хороший звук DUB, MVO) в форум Фильмы с авторской озвучкой


bober100piratbit.pw



    Дорогой пользователь! Огромная просьба, поблагодарите релизера, оцените раздачу и оставьте свои комментарий, если Вы скачали Подвиды через торрент бесплатно! Внесите свою лепту в развитие PiratBit!
    Комментировать посты могут только пользователи прошедшие не сложную регистрацию
    Показать сообщения:    

    Подвиды через торрент
    Скачать бесплатно Подвиды
    Подвиды скачать торрент
    Подвиды смотреть онлайн
    Cкачать фильм Подвиды бесплатно
    Подвиды скачать торрент в хорошем качестве
    Подвиды смотреть онлайн бесплатно в хорошем качестве


    Вы не можете начинать темы
    Вы не можете отвечать на сообщения
    Вы не можете редактировать свои сообщения
    Вы не можете удалять свои сообщения
    Вы не можете голосовать в опросах
    Вы не можете прикреплять файлы к сообщениям
    Вы можете скачивать файлы