Ссылка на приватное зеркало нашего сайта всего за 1$. Внимание количество ограничено!!!

2 сезон

iTunes

1 сезон

1

2 сезон

2 сезон

iTunes

1 сезон

RePack

30

Новинка

ВАЖНО

ИГРА 18+

pack

RePack

MK11
pack

Забери бонус

RePack

jed

!!Акция!!

Alien_Rage

RePack

fifa19

RePack

Assassins Creed: Odyssey

RePack

NEED FOR SPEED™ PAYBACK

4 сезон

9 сезон

Бесстыжие 9 сезон

Все сериалы

все сериалы на PB.wtf

RePack

FAR CRY 5
  

Агент Ева / Ava (Тейт Тейлор) [2020, Боевик, триллер, драма, криминал, детектив, HDRip-AVC] [DUB] [iTunes] от MediaBit piratbit.pw

Агент Ева через торрент piratbit.pw

Раздают: 5 [ 0 KB/s ]
Размер: 748 MB | Добавлен: 2 мес. 13 д. назад | Торрент скачан:108 раз
Скачать  

11-09-2020 15:41 Агент Ева Скачать торрент  


Агент Ева / Ava
Информация о фильме:
Название: Агент Ева
Оригинальное название: Ava
Год выхода: 2020
Жанр: Боевик, триллер, драма, криминал, детектив
Режиссер: Тейт Тейлор

В ролях: Джессика Честейн, Коммон, Джон Малкович, Колин Фаррелл, Джина Дэвис, Диана Сильверс, Йоан Гриффит, Джоан Чен, Джесс Вейкслер, Джанель Фейгли

Описание: Она умна, красива и чрезвычайно опасна. Перемещаясь по миру словно тень, агент по имени Ева в одиночку выполняет самые сложные задания своего руководства. Внезапно, когда очередная спецоперация идет не по плану, и Ева решает выйти из игры, один из влиятельных боссов секретной службы открывает на неё охоту.

rating

Страна: США
Студия: Freckle Films, Voltage Pictures
Продолжительность: 01:36:49
Перевод: Дублированный - iTunes



Информация о файле:
Кодек: AVC
Формат: MKV
Качество: HDRip-AVC
Видео: MPEG-4 AVC, 720x302 (2.40:1), 984 kbps, 23.976 fps, 0.189
Аудио RU: AAC-HE, 2 ch, 48 kHz, 96 kbps
Субтитры: Русские (2 x Forced, 2 x full), английские
Навигация по главам: Да



General
Unique ID : 114120933832089509849225774724712380634 (0x55DAE472ADDF5737465B263E798238DA)
Complete name : D:uTorrentРипы_от_wolf1245_MediaBitAva 2020 from wolf1245 & MediaBit.mkv
Format : Matroska
Format version : Version 4
File size : 748 MiB
Duration : 1 h 36 min
Overall bit rate : 1 080 kb/s
Movie name : Ava 2020 from wolf1245 & MediaBit
Encoded date : UTC 2020-09-11 15:28:25
Writing application : mkvmerge v50.0.0 ('Awakenings') 64-bit
Writing library : libebml v1.4.0 + libmatroska v1.6.2

Video
ID : 1
Format : AVC
Format/Info : Advanced Video Codec
Format profile : High@L4.1
Format settings : CABAC / 11 Ref Frames
Format settings, CABAC : Yes
Format settings, Reference frames : 11 frames
Codec ID : V_MPEG4/ISO/AVC
Duration : 1 h 36 min
Bit rate : 984 kb/s
Width : 720 pixels
Height : 302 pixels
Display aspect ratio : 2.40:1
Frame rate mode : Constant
Frame rate : 23.976 (24000/1001) FPS
Color space : YUV
Chroma subsampling : 4:2:0
Bit depth : 8 bits
Scan type : Progressive
Bits/(Pixel*Frame) : 0.189
Stream size : 680 MiB (91%)
Title : from wolf1245 & MediaBit
Writing library : x264 core 157 r2958 57baac4
Encoding settings : cabac=1 / ref=11 / deblock=1:-3:-3 / analyse=0x3:0x133 / me=umh / subme=11 / psy=1 / psy_rd=0.98:0.07 / mixed_ref=1 / me_range=48 / chroma_me=1 / trellis=2 / 8x8dct=1 / cqm=0 / deadzone=21,11 / fast_pskip=0 / chroma_qp_offset=-3 / threads=10 / lookahead_threads=2 / sliced_threads=0 / nr=0 / decimate=0 / interlaced=0 / bluray_compat=0 / constrained_intra=0 / bframes=11 / b_pyramid=2 / b_adapt=2 / b_bias=0 / direct=3 / weightb=1 / open_gop=0 / weightp=2 / keyint=240 / keyint_min=24 / scenecut=40 / intra_refresh=0 / rc_lookahead=60 / rc=2pass / mbtree=0 / bitrate=984 / ratetol=1.0 / qcomp=0.60 / qpmin=0 / qpmax=69 / qpstep=4 / cplxblur=20.0 / qblur=0.5 / vbv_maxrate=50000 / vbv_bufsize=62500 / nal_hrd=none / filler=0 / ip_ratio=1.40 / pb_ratio=1.30 / aq=1:1.00
Language : English
Default : Yes
Forced : No

Audio
ID : 2
Format : AAC LC SBR
Format/Info : Advanced Audio Codec Low Complexity with Spectral Band Replication
Commercial name : HE-AAC
Format settings : Implicit
Codec ID : A_AAC-2
Duration : 1 h 36 min
Bit rate : 96.0 kb/s
Channel(s) : 2 channels
Channel layout : L R
Sampling rate : 48.0 kHz
Frame rate : 23.438 FPS (2048 SPF)
Compression mode : Lossy
Stream size : 66.5 MiB (9%)
Title : Dub [iTunes]
Language : Russian
Default : Yes
Forced : No

Text #1
ID : 3
Format : UTF-8
Codec ID : S_TEXT/UTF8
Codec ID/Info : UTF-8 Plain Text
Duration : 54 min 4 s
Bit rate : 7 b/s
Count of elements : 55
Stream size : 2.93 KiB (0%)
Title : Forced [For iTunes]
Language : Russian
Default : No
Forced : No

Text #2
ID : 4
Format : UTF-8
Codec ID : S_TEXT/UTF8
Codec ID/Info : UTF-8 Plain Text
Duration : 54 min 4 s
Bit rate : 9 b/s
Count of elements : 83
Stream size : 3.93 KiB (0%)
Title : Forced [For HDRezka Studio]
Language : Russian
Default : No
Forced : No

Text #3
ID : 5
Format : UTF-8
Codec ID : S_TEXT/UTF8
Codec ID/Info : UTF-8 Plain Text
Duration : 1 h 31 min
Bit rate : 71 b/s
Count of elements : 1094
Stream size : 47.7 KiB (0%)
Title : Full [iTunes]
Language : Russian
Default : No
Forced : No

Text #4
ID : 6
Format : UTF-8
Codec ID : S_TEXT/UTF8
Codec ID/Info : UTF-8 Plain Text
Duration : 1 h 32 min
Bit rate : 76 b/s
Count of elements : 1107
Stream size : 51.5 KiB (0%)
Title : Full [FOCS]
Language : Russian
Default : No
Forced : No

Text #5
ID : 7
Format : UTF-8
Codec ID : S_TEXT/UTF8
Codec ID/Info : UTF-8 Plain Text
Duration : 1 h 30 min
Bit rate : 47 b/s
Count of elements : 912
Stream size : 31.7 KiB (0%)
Title : Full
Language : English
Default : No
Forced : No

Text #6
ID : 8
Format : UTF-8
Codec ID : S_TEXT/UTF8
Codec ID/Info : UTF-8 Plain Text
Duration : 1 h 31 min
Bit rate : 52 b/s
Count of elements : 1067
Stream size : 35.1 KiB (0%)
Title : SDH
Language : English
Default : No
Forced : No

Menu
00:00:00.000 : :Глава 01
00:11:07.542 : :Глава 02
00:21:53.145 : :Глава 03
00:32:22.899 : :Глава 04
00:44:26.497 : :Глава 05
00:58:33.427 : :Глава 06
01:10:38.192 : :Глава 07
01:18:23.949 : :Глава 08
01:32:28.752 : :Глава 09
Релиз от: &
piratbit.pw



Скачать Агент Ева через торрент https://a.radikal.ru/a38/2009/50/3d6930c8f6b6.jpg Скачать фильм Агент Ева через торрент бесплантно в хорошем качестве Описание: Она умна, красива и чрезвычайно опасна. Перемещаясь по миру словно тень, агент по имени Ева в одиночку выполняет самые сложные ... 10 10 4
Торрент: Зарегистрирован [2020-09-11 15:41] · скачан: 108 раз
Статус: √ проверено
Размер: 748 MB
Как cкачать? Как скачать Агент Ева через торрент | qTorrent

28-11-2019 20:33  

Отключить всю рекламу на сайте

    Дорогой пользователь! Огромная просьба, поблагодарите релизера, оцените раздачу и оставьте свои комментарий, если Вы скачали Агент Ева через торрент бесплатно! Внесите свою лепту в развитие PiratBit!
    Комментировать посты могут только пользователи прошедшие не сложную регистрацию
    Показать сообщения:    

    Агент Ева через торрент
    Скачать бесплатно Агент Ева
    Агент Ева скачать торрент
    Агент Ева смотреть онлайн
    Cкачать фильм Агент Ева бесплатно
    Агент Ева скачать торрент в хорошем качестве
    Агент Ева смотреть онлайн бесплатно в хорошем качестве


    Вы не можете начинать темы
    Вы не можете отвечать на сообщения
    Вы не можете редактировать свои сообщения
    Вы не можете удалять свои сообщения
    Вы не можете голосовать в опросах
    Вы не можете прикреплять файлы к сообщениям
    Вы можете скачивать файлы