Ссылка на приватное зеркало нашего сайта всего за 1$. Внимание количество ограничено!!!

2 сезон

iTunes

iTunes

1

iTunes

iTunes

iTunes

WEBRip

iTunes

30
pack

Вам бонус

ВАЖНО

!!Акция!!

Alien_RageХит недели

RePack

Horizon Zero Dawn

ИГРА 18+

pack

RePack

jed

!!Акция!!

Alien_Rage

RePack

fifa19

RePack

Assassins Creed: Odyssey

RePack

NEED FOR SPEED™ PAYBACK

4 сезон

9 сезон

Бесстыжие 9 сезон

Все сериалы

все сериалы на PB.wtf

RePack

FAR CRY 5
  

Таинственный сад / The Secret Garden (Марк Манден) [2020, Фэнтези, приключения, семейный, WEB-DL 720p] DUB [iTunes] piratbit.pw

Таинственный сад через торрент piratbit.pw

Размер: 2.95 GB | Добавлен: 13 д. назад | Торрент скачан:0 раз
Скачать  

01-09-2020 02:02 Таинственный сад Скачать торрент  

Таинственный сад | The Secret Garden
Год выпуска: 2019
Страна: Великобритания, Франция, США, Китай
Студия: Canal+ [fr], Fundamental Films, Ciné, Heyday Films, Studio Canal, STX Films
Жанр: Фэнтези, приключения, семейный
Продолжительность: 01:39:44
Перевод: Дублированный | iTunes
Субтитры: Русские (Full), английские

Режиссер: Марк Манден

rating

В ролях: Дикси Эгерикс, Колин Фёрт, Джули Уолтерс, Эдан Хэйхёрст, Амир Уилсон, Айзис Дэвис, Мейв Дермоди, Соня Госвами, Пол Дин-Келли, Энн Лэйси, Руперт Янг, Джемма Пауэлл, Альберт Джаннителли, Абдул Хаким Джой

Описание: Внезапно осиротевшая девочка Мэри вынуждена переехать в окутанный тайнами особняк своего дяди в Англии. Правилами строго запрещено выходить из своей комнаты и бродить по коридорам огромного дома, но однажды Мэри обнаруживает потайную дверь, ведущую в удивительный мир, где исполняются любые желания – таинственный сад.

Качество: WEB-DL 720p
Формат: MKV

Видео: MPEG-4 AVC, 1280x720, 3462 Kbit/s, 23.976 fps
Аудио #01: 48 kHz, AC3, 5.1, 384 Kbps | iTunes | RUS |
Аудио #02: 48 kHz, AC3, 5.1, 384 Kbps | Оригинал | ENG |
скриншот  скриншот  скриншот  скриншот  скриншот  

General
Unique ID : 81806167209618681081038325865672308942 (0x3D8B4B71E1DBC98F768DCC1CF95F78CE)
Complete name : D:Video111The.Secret.Garden.WEB-DL.720p.seleZen.mkv
Format : Matroska
Format version : Version 4
File size : 2.95 GiB
Duration : 1 h 39 min
Overall bit rate mode : Variable
Overall bit rate : 4 232 kb/s
Movie name : The Secret Garden 2020 from селезень
Encoded date : UTC 2020-08-31 22:09:40
Writing application : mkvmerge v40.0.0 ('Old Town Road + Pony') 64-bit
Writing library : libebml v1.3.9 + libmatroska v1.5.2

Video
ID : 1
Format : AVC
Format/Info : Advanced Video Codec
Format profile : Main@L3.1
Format settings : CABAC / 4 Ref Frames
Format settings, CABAC : Yes
Format settings, Reference : 4 frames
Codec ID : V_MPEG4/ISO/AVC
Duration : 1 h 39 min
Bit rate mode : Variable
Bit rate : 3 462 kb/s
Maximum bit rate : 7 000 kb/s
Width : 1 280 pixels
Height : 720 pixels
Display aspect ratio : 16:9
Frame rate mode : Constant
Frame rate : 23.976 (24000/1001) FPS
Color space : YUV
Chroma subsampling : 4:2:0
Bit depth : 8 bits
Scan type : Progressive
Bits/(Pixel*Frame) : 0.157
Stream size : 2.41 GiB (82%)
Language : English
Default : Yes
Forced : No
Color range : Limited
Color primaries : BT.709
Transfer characteristics : BT.709
Matrix coefficients : BT.709

Audio #1
ID : 2
Format : AC-3
Format/Info : Audio Coding 3
Commercial name : Dolby Digital
Codec ID : A_AC3
Duration : 1 h 39 min
Bit rate mode : Constant
Bit rate : 384 kb/s
Channel(s) : 6 channels
Channel layout : L R C LFE Ls Rs
Sampling rate : 48.0 kHz
Frame rate : 31.250 FPS (1536 SPF)
Compression mode : Lossy
Stream size : 274 MiB (9%)
Title : iTunes
Language : Russian
Service kind : Complete Main
Default : Yes
Forced : Yes

Audio #2
ID : 3
Format : AC-3
Format/Info : Audio Coding 3
Commercial name : Dolby Digital
Codec ID : A_AC3
Duration : 1 h 39 min
Bit rate mode : Constant
Bit rate : 384 kb/s
Channel(s) : 6 channels
Channel layout : L R C LFE Ls Rs
Sampling rate : 48.0 kHz
Frame rate : 31.250 FPS (1536 SPF)
Compression mode : Lossy
Stream size : 274 MiB (9%)
Title : Original
Language : English
Service kind : Complete Main
Default : No
Forced : No

Text #1
ID : 4
Format : UTF-8
Codec ID : S_TEXT/UTF8
Codec ID/Info : UTF-8 Plain Text
Duration : 1 h 33 min
Bit rate : 59 b/s
Count of elements : 898
Stream size : 40.7 KiB (0%)
Title : Full
Language : Russian
Default : No
Forced : No

Text #2
ID : 5
Format : UTF-8
Codec ID : S_TEXT/UTF8
Codec ID/Info : UTF-8 Plain Text
Duration : 1 h 32 min
Bit rate : 43 b/s
Count of elements : 1040
Stream size : 29.6 KiB (0%)
Title : SDH
Language : English
Default : No
Forced : No

piratbit.pw



Скачать Таинственный сад через торрент https://i112.fastpic.ru/big/2020/0901/46/2ee276e7670713f9dc53c82b0a7dac46.jpg Скачать фильм Таинственный сад через торрент бесплантно в хорошем качестве Описание: Внезапно осиротевшая девочка Мэри вынуждена переехать в окутанный тайнами особняк своего дяди в Англии. Правилами строго ... 9.8 10 8
Торрент: Зарегистрирован [2020-09-11 11:15] · скачан: 0 раз
Статус: √ проверено
Размер: 2.95 GB
Как cкачать? Как скачать Таинственный сад через торрент | qTorrent

% Раздел Тема Автор DL S | L

28-11-2019 20:33  

Отключить всю рекламу на сайте

    Дорогой пользователь! Огромная просьба, поблагодарите релизера, оцените раздачу и оставьте свои комментарий, если Вы скачали Таинственный сад через торрент бесплатно! Внесите свою лепту в развитие PiratBit!
    Комментировать посты могут только пользователи прошедшие не сложную регистрацию
    Показать сообщения:    

    Таинственный сад через торрент
    Скачать бесплатно Таинственный сад
    Таинственный сад скачать торрент
    Таинственный сад смотреть онлайн
    Cкачать фильм Таинственный сад бесплатно
    Таинственный сад скачать торрент в хорошем качестве
    Таинственный сад смотреть онлайн бесплатно в хорошем качестве


    Вы не можете начинать темы
    Вы не можете отвечать на сообщения
    Вы не можете редактировать свои сообщения
    Вы не можете удалять свои сообщения
    Вы не можете голосовать в опросах
    Вы не можете прикреплять файлы к сообщениям
    Вы можете скачивать файлы