Marvel's Avengers Deluxe Edition (супер цена) 159р. Внимание количество ограничено!!!

2 сезон

iTunes

iTunes

1

iTunes

iTunes

iTunes

WEBRip

iTunes

30
pack

Новость дня

ВАЖНО

!!Акция!!

Alien_RageХит недели

RePack

Horizon Zero Dawn

ИГРА 18+

pack

RePack

jed

!!Акция!!

Alien_Rage

RePack

fifa19

RePack

Assassins Creed: Odyssey

RePack

NEED FOR SPEED™ PAYBACK

4 сезон

9 сезон

Бесстыжие 9 сезон

Все сериалы

все сериалы на PB.wtf

RePack

FAR CRY 5
  

Запретная зона (Митрий Семенов-Алейников) [2020, Триллер, WEB-DL 720p] piratbit.pw

Запретная зона через торрент piratbit.pw

Раздают: 8 [ 259 KB/s ]
Размер: 1.98 GB | Добавлен: 7 д. назад | Торрент скачан:69 раз
Скачать  

11-09-2020 01:26 Запретная зона Скачать торрент  

Запретная зона
Год выпуска: 2020
Страна: Беларусь
Студия: MEGOGO Studios, Film Wagen
Жанр: Триллер
Продолжительность: 01:35:55
Перевод: Не требуется
Субтитры: отсутствуют

Режиссер: Митрий Семенов-Алейников



В ролях: Дарья Мельникова, Александр Головин, Даниил Вахрушев, Сергей Сосновский, Павел Чинарёв, Ирина Безряднова, Сергей Толкач, Юлианна Михневич, Игорь Сидорчик, Никита Провалинский

Описание: 1989 год, 50 км от Чернобыля. Компания друзей отправляется в поход. Во время сплава по реке молодые люди сбиваются с маршрута и попадают в зону отчуждения. Волею случая на совести ребят оказывается чужая смерть и чужие деньги. Теперь события развиваются непредсказуемо. Как поведёт себя каждый участник похода? Взаимное недоверие, страх, ревность и сумка с деньгами, которые могут всё исправить… или погубить.

Качество: WEB-DL 720p
Формат: MKV

Видео: MPEG-4 AVC, ~ 2507 Кбит/с, 1280x536
Аудио: 48 kHz, AC3 Dolby Digital, 3/2 (L, C, R, l, r) + LFE ch, ~384 kbps
скриншот  скриншот  скриншот  скриншот  

Общее
Уникальный идентификатор : 251044919482683115124913618644781755583 (0xBCDD7E26F2AB54A7809041364FB3ECBF)
Полное имя : D:\Zapretnaya.zona.2020.WEB-DL.720p.ExKinoRay.mkv
Формат : Matroska
Версия формата : Version 2
Размер файла : 1,98 Гбайт
Продолжительность : 1 ч. 35 м.
Общий поток : 2950 Кбит/сек
Дата кодирования : UTC 2020-09-11 00:52:47
Программа кодирования : mkvmerge v5.8.0 ('No Sleep / Pillow') built on Sep 2 2012 15:37:04
Библиотека кодирования : libebml v1.2.3 + libmatroska v1.3.0

Видео
Идентификатор : 1
Формат : AVC
Формат/Информация : Advanced Video Codec
Профиль формата : High@L4
Параметр CABAC формата : Да
Параметр RefFrames формата : 4 кадра
Идентификатор кодека : V_MPEG4/ISO/AVC
Продолжительность : 1 ч. 35 м.
Битрейт : 2507 Кбит/сек
Ширина : 1280 пикселей
Высота : 536 пикселей
Соотношение сторон : 2,40:1
Режим частоты кадров : Постоянный
Частота кадров : 24,000 кадра/сек
Цветовое пространство : YUV
Субдискретизация насыщенности : 4:2:0
Битовая глубина : 8 бит
Тип развёртки : Прогрессивная
Бит/(Пиксели*Кадры) : 0.152
Размер потока : 1,68 Гбайт (85%)
Язык : Russian
Default : Да
Forced : Нет

Аудио
Идентификатор : 2
Формат : AC-3
Формат/Информация : Audio Coding 3
Расширение режима : CM (complete main)
Параметр Endianness формата : Big
Идентификатор кодека : A_AC3
Продолжительность : 1 ч. 35 м.
Вид битрейта : Постоянный
Битрейт : 384 Кбит/сек
Каналы : 6 каналов
Расположение каналов : Front: L C R, Side: L R, LFE
Частота : 48,0 КГц
Частота кадров : 31,250 кадров/сек (1536 spf)
Метод сжатия : С потерями
Размер потока : 263 Мбайт (13%)
Язык : Russian
Default : Да
Forced : Нет

piratbit.pw



Скачать Запретная зона через торрент https://d.radikal.ru/d31/2009/60/1f0d8d7cced3.jpg Скачать фильм Запретная зона через торрент бесплантно в хорошем качестве Описание: 1989 год, 50 км от Чернобыля. Компания друзей отправляется в поход. Во время сплава по реке молодые люди сбиваются с маршрута и ... 8.2 10 5
Торрент: Зарегистрирован [2020-09-11 01:26] · скачан: 69 раз
Статус: √ проверено
Размер: 1.98 GB
Как cкачать? Как скачать Запретная зона через торрент | qTorrent

% Раздел Тема Автор DL S | L
Наши новые фильмы 2018-2019 [ 1.46 GB ] Запретная зона [2020 WEB-DLRip] bober100 Скачать
29 | 1
Фильмы 2019-2020 [DVDrip, WEB-DLRip, HDrip] (DUB, MVO) [ 749 MB ] Запретная зона [2020 WEB-DLRip-AVC] [RUS] от MediaBit Lithuania Скачать
30 | 1
Наши новые фильмы 2018-2019 [ 1.46 GB ] Запретная зона [2020 WEB-DLRip-AVC] bober100 Скачать
23 | 1
Наши фильмы (HD, WEB-DL 720p, 1080p) [ 3.68 GB ] Запретная зона [2020 WEB-DL 1080p] bober100 Скачать
38 | 0
3D Фильмы [ 9.87 GB ] Запретная Зона 3D в 3Д / Bunker of the Dead 3D [2015 BDRip 1080p] OverUnder / Вертикальная стереопара serega768 Скачать
1 | 0
T 3D Фильмы [ 6.89 GB ] Запретная Зона 3D / Bunker of the Dead [2015 BDRip 1080p] [Half OverUnder / Вертикальная анаморфная стереопара] DUB [Line] bober100 Скачать
1 | 0
T Релизы по Парсеру [Игры, Сериалы и Фильмы и другое...] [ 1.46 GB ] Запретная зона: Похищение инопланетянином / Forbidden zone: Alien abduction DVDRip | Ворон Скачать
1 | 0

28-11-2019 20:33  

Отключить всю рекламу на сайте

    Дорогой пользователь! Огромная просьба, поблагодарите релизера, оцените раздачу и оставьте свои комментарий, если Вы скачали Запретная зона через торрент бесплатно! Внесите свою лепту в развитие PiratBit!
    Комментировать посты могут только пользователи прошедшие не сложную регистрацию
    Показать сообщения:    

    Запретная зона через торрент
    Скачать бесплатно Запретная зона
    Запретная зона скачать торрент
    Запретная зона смотреть онлайн
    Cкачать фильм Запретная зона бесплатно
    Запретная зона скачать торрент в хорошем качестве
    Запретная зона смотреть онлайн бесплатно в хорошем качестве


    Вы не можете начинать темы
    Вы не можете отвечать на сообщения
    Вы не можете редактировать свои сообщения
    Вы не можете удалять свои сообщения
    Вы не можете голосовать в опросах
    Вы не можете прикреплять файлы к сообщениям
    Вы можете скачивать файлы