Ссылка на приватное зеркало нашего сайта всего за 1$. Внимание количество ограничено!!!

2 сезон

iTunes

1 сезон

1

2 сезон

2 сезон

iTunes

1 сезон

RePack

30

Новинка

ВАЖНО

ИГРА 18+

pack

RePack

MK11
pack

Забери бонус

RePack

jed

!!Акция!!

Alien_Rage

RePack

fifa19

RePack

Assassins Creed: Odyssey

RePack

NEED FOR SPEED™ PAYBACK

4 сезон

9 сезон

Бесстыжие 9 сезон

Все сериалы

все сериалы на PB.wtf

RePack

FAR CRY 5
  

Мой создатель / Archive (Гэвин Ротери) [2020, Фантастика, WEB-DLRip-AVC] DUB [iTunes] - ExKinoRay piratbit.pw

Мой создатель через торрент piratbit.pw

Раздают: 147 [ 3 KB/s ] Качают: 1 [ 0 KB/s ]
Размер: 2.54 GB | Добавлен: 2 мес. 19 д. назад | Торрент скачан:431 раз
Скачать  

09-09-2020 21:36 Мой создатель Скачать торрент  

Название: Мой создатель
Оригинальное название: Archive
Год выпуска: 2020
Жанр: Фантастика, Драма
Выпущено: Великобритания, Венгрия, США, Independent, Hero Squared, Head Gear Films
Режиссер: Гэвин Ротери
В ролях: Рона Митра, Тео Джеймс, Тоби Джонс, Стэйси Мартин, Питер Фердинандо, Ричард Гловер, Ханс Петерсон, Джереми Вилер, Тимея Мадай Кинга

О фильме: 2046-ой год. Время невероятных технологических открытий, могущественных корпораций и торжества искусственного интеллекта. Молодой ученый в секретной лаборатории занимается поиском вечной жизни для сильных мира сего. Но его истинная цель другая. Он пытается воскресить свою единственную любовь, погибшую несколько лет назад. Когда объект перестает выходить на связь, корпорация отправляет туда команду зачистки.

rating

Перевод: Дублированный | iTunes
Продолжительность: 01:49:17

Формат: MKV
Качество: WEB-DLRip-AVC
Видео: MPEG-4 AVC, 1024x456, 2950 kbps, 23.976 fps
Аудио : 48 kHz, AC3, 5.1, 384 Kbps | iTunes | RUS |
Субтитры: Русские (форсированные, полные)
x264 [info]: frame I:1196 Avg QP:15.29 size: 74095
x264 [info]: frame P:32941 Avg QP:18.42 size: 29357
x264 [info]: frame B:123082 Avg QP:19.83 size: 11045
--------------------------------------------------------------------------------
General
Unique ID : 177447125266696624485467054376154717463 (0x857F12BDDE37F2BA8DAE8563D3F25D17)
Complete name : F:\Archive.2020.iTunes.AMZN.WEB-DL.AVC.ExKinoRay.mkv
Format : Matroska
Format version : Version 2
File size : 2.54 GiB
Duration : 1 h 49 min
Overall bit rate : 3 332 kb/s
Movie name : Archive 2020 from ExKinoRay
Encoded date : UTC 2020-09-09 21:10:35
Writing application : mkvmerge v5.6.0 ('Kenya Kane') built on May 27 2012 16:44:04
Writing library : libebml v1.2.3 + libmatroska v1.3.0
Attachments : front.jpg

Video
ID : 1
Format : AVC
Format/Info : Advanced Video Codec
Format profile : High@L4.1
Format settings, CABAC : Yes
Format settings, ReFrames : 11 frames
Codec ID : V_MPEG4/ISO/AVC
Duration : 1 h 49 min
Bit rate : 2 950 kb/s
Width : 1 024 pixels
Height : 456 pixels
Display aspect ratio : 2.25:1
Frame rate mode : Constant
Frame rate : 23.976 (23976/1000) FPS
Color space : YUV
Chroma subsampling : 4:2:0
Bit depth : 8 bits
Scan type : Progressive
Bits/(Pixel*Frame) : 0.263
Stream size : 2.20 GiB (86%)
Title : Enigma
Writing library : x264 core 152 r2851 ba24899
Encoding settings : cabac=1 / ref=11 / deblock=1:-2:-2 / analyse=0x3:0x113 / me=umh / subme=10 / psy=1 / psy_rd=0.97:0.05 / mixed_ref=1 / me_range=32 / chroma_me=1 / trellis=2 / 8x8dct=1 / cqm=0 / deadzone=21,11 / fast_pskip=0 / chroma_qp_offset=-3 / threads=12 / lookahead_threads=2 / sliced_threads=0 / nr=0 / decimate=0 / interlaced=0 / bluray_compat=0 / constrained_intra=0 / bframes=9 / b_pyramid=2 / b_adapt=2 / b_bias=0 / direct=3 / weightb=1 / open_gop=0 / weightp=2 / keyint=240 / keyint_min=23 / scenecut=40 / intra_refresh=0 / rc=2pass / mbtree=0 / bitrate=2950 / ratetol=1.0 / qcomp=0.60 / qpmin=0 / qpmax=51 / qpstep=4 / cplxblur=20.0 / qblur=0.5 / ip_ratio=1.40 / pb_ratio=1.30 / aq=1:1.00
Language : English
Default : Yes
Forced : No
Color range : Limited
Color primaries : BT.709
Transfer characteristics : BT.709
Matrix coefficients : BT.709

Audio
ID : 2
Format : AC-3
Format/Info : Audio Coding 3
Mode extension : CM (complete main)
Format settings, Endianness : Big
Codec ID : A_AC3
Duration : 1 h 49 min
Bit rate mode : Constant
Bit rate : 384 kb/s
Channel(s) : 6 channels
Channel positions : Front: L C R, Side: L R, LFE
Sampling rate : 48.0 kHz
Frame rate : 31.250 FPS (1536 spf)
Compression mode : Lossy
Stream size : 300 MiB (12%)
Title : Dub (iTunes)
Language : Russian
Default : Yes
Forced : No

Text #1
ID : 3
Format : UTF-8
Codec ID : S_TEXT/UTF8
Codec ID/Info : UTF-8 Plain Text
Title : Forced
Language : Russian
Default : Yes
Forced : No

Text #2
ID : 4
Format : UTF-8
Codec ID : S_TEXT/UTF8
Codec ID/Info : UTF-8 Plain Text
Title : Full
Language : Russian
Default : No
Forced : No


Релиз от:

Автор релиза: piratbit.pw



Скачать Мой создатель через торрент https://c.radikal.ru/c41/2007/3c/e58e19d278f8.jpg Скачать фильм Мой создатель через торрент бесплантно в хорошем качестве О фильме: 2046-ой год. Время невероятных технологических открытий, могущественных корпораций и торжества искусственного интеллекта. ... 10 10 13
Info! Золотая раздача, скачанное не засчитывается.
Торрент: Зарегистрирован [2020-09-09 21:36] · скачан: 431 раз
Статус: √ проверено
Размер: 2.54 GB
Как cкачать? Как скачать Мой создатель через торрент | qTorrent

28-11-2019 20:33  

Отключить всю рекламу на сайте

    Дорогой пользователь! Огромная просьба, поблагодарите релизера, оцените раздачу и оставьте свои комментарий, если Вы скачали Мой создатель через торрент бесплатно! Внесите свою лепту в развитие PiratBit!
    Комментировать посты могут только пользователи прошедшие не сложную регистрацию
    Показать сообщения:    

    Мой создатель через торрент
    Скачать бесплатно Мой создатель
    Мой создатель скачать торрент
    Мой создатель смотреть онлайн
    Cкачать фильм Мой создатель бесплатно
    Мой создатель скачать торрент в хорошем качестве
    Мой создатель смотреть онлайн бесплатно в хорошем качестве


    Вы не можете начинать темы
    Вы не можете отвечать на сообщения
    Вы не можете редактировать свои сообщения
    Вы не можете удалять свои сообщения
    Вы не можете голосовать в опросах
    Вы не можете прикреплять файлы к сообщениям
    Вы можете скачивать файлы