Ссылка на приватное зеркало нашего сайта всего за 1$. Внимание количество ограничено!!!

2 сезон

iTunes

1 сезон

1

2 сезон

2 сезон

iTunes

1 сезон

RePack

30

Ultimate

ВАЖНО

ИГРА 18+

pack

RePack

MK11
pack

Забери бонус

RePack

jed

!!Акция!!

Alien_Rage

RePack

fifa19

RePack

Assassins Creed: Odyssey

RePack

NEED FOR SPEED™ PAYBACK

4 сезон

9 сезон

Бесстыжие 9 сезон

Все сериалы

все сериалы на PB.wtf

RePack

FAR CRY 5
  

Ночная жизнь / Nightlife (Симон Ферхоэвен) [2020, Мелодрама, комедия, HDRip-AVC] [MVO] [iTunes] от MediaBit piratbit.pw

Ночная жизнь через торрент piratbit.pw

Раздают: 1 [ 0 KB/s ]
Размер: 752 MB | Добавлен: 2 мес. 20 д. назад | Торрент скачан:58 раз
Скачать  

09-09-2020 18:50 Ночная жизнь Скачать торрент  


Ночная жизнь / Nightlife
Информация о фильме:
Название: Ночная жизнь
Оригинальное название: Nightlife
Год выхода: 2020
Жанр: Мелодрама, комедия
Режиссер: Симон Ферхоэвен

В ролях: Элиас ЭмБарек, Джулиан Лооман, Фредерик Лау, Каро Культ, Николас Офчарек, Кристина ду Рего, Симон Ферхоэвен, Полина Рожински, Милена Драйсиг, Стефан Хорнунг

Описание: Когда двум друзьям-барменам отказывают в кредите на открытие собственного ночного клуба, они пытаются найти другие способы достать деньги. После одной такой неудачной попытки местная мафия ставит им условие: вернуть кругленькую сумму к полудню следующего дня — или они покойники. По стечению обстоятельств именно на этот вечер у одного из друзей назначено свидание с девушкой его мечты, которое он никак не может отменить. Теперь два друга должны придумать, как не оставить девушку без внимания, при этом остаться в живых к полудню следующего дня.

rating

Страна: Германия
Студия: SevenPictures Film, Warner Bros. Film Productions Germany, Wiedemann & Berg Filmproduktion
Продолжительность: 01:55:21
Перевод: Профессиональный (многоголосый, закадровый) - iTunes



Информация о файле:
Кодек: AVC
Формат: MKV
Качество: HDRip-AVC
Видео: MPEG-4 AVC, 720x300 (2.40:1), 814 kbps, 23.976 fps, 0.157
Аудио RU: AAC-HE, 2 ch, 48 kHz, 96 kbps
Навигация по главам: Да



General
Unique ID : 177066562530240459180393530057817492278 (0x8535C78CD4E747E96D6F7D5C43D68B36)
Complete name : D:uTorrentРипы_от_wolf1245_MediaBitNightlife 2020 from wolf1245 & MediaBit.HDRip-AVC.mkv
Format : Matroska
Format version : Version 4
File size : 752 MiB
Duration : 1 h 55 min
Overall bit rate : 911 kb/s
Movie name : Nightlife 2020 from wolf1245 & MediaBit.HDRip-AVC
Encoded date : UTC 2020-09-09 18:36:42
Writing application : mkvmerge v50.0.0 ('Awakenings') 64-bit
Writing library : libebml v1.4.0 + libmatroska v1.6.2 / Lavf58.29.100
ENCODING_INFO : MATROSKA,WEBM > MKV Пользовательский

Video
ID : 1
Format : AVC
Format/Info : Advanced Video Codec
Format profile : High@L4.1
Format settings : CABAC / 11 Ref Frames
Format settings, CABAC : Yes
Format settings, Reference frames : 11 frames
Codec ID : V_MPEG4/ISO/AVC
Duration : 1 h 55 min
Bit rate : 814 kb/s
Width : 720 pixels
Height : 300 pixels
Display aspect ratio : 2.40:1
Frame rate mode : Constant
Frame rate : 23.976 (24000/1001) FPS
Color space : YUV
Chroma subsampling : 4:2:0
Bit depth : 8 bits
Scan type : Progressive
Bits/(Pixel*Frame) : 0.157
Stream size : 671 MiB (89%)
Title : wolf1245 & MediaBit
Writing library : x264 core 157 r2958 57baac4
Encoding settings : cabac=1 / ref=11 / deblock=1:-3:-3 / analyse=0x3:0x133 / me=umh / subme=11 / psy=1 / psy_rd=1.00:0.15 / mixed_ref=1 / me_range=48 / chroma_me=1 / trellis=2 / 8x8dct=1 / cqm=0 / deadzone=21,11 / fast_pskip=0 / chroma_qp_offset=-3 / threads=10 / lookahead_threads=2 / sliced_threads=0 / nr=0 / decimate=0 / interlaced=0 / bluray_compat=0 / constrained_intra=0 / bframes=11 / b_pyramid=2 / b_adapt=2 / b_bias=0 / direct=3 / weightb=1 / open_gop=0 / weightp=2 / keyint=240 / keyint_min=24 / scenecut=40 / intra_refresh=0 / rc_lookahead=60 / rc=2pass / mbtree=0 / bitrate=814 / ratetol=1.0 / qcomp=0.62 / qpmin=0 / qpmax=69 / qpstep=4 / cplxblur=20.0 / qblur=0.5 / vbv_maxrate=50000 / vbv_bufsize=62500 / nal_hrd=none / filler=0 / ip_ratio=1.40 / pb_ratio=1.30 / aq=1:1.00
Language : English
Default : Yes
Forced : No
ENCODING_INFO : H264 > X264 VBR-2P 814kbps Very Slow

Audio
ID : 2
Format : AAC LC SBR
Format/Info : Advanced Audio Codec Low Complexity with Spectral Band Replication
Commercial name : HE-AAC
Format settings : Implicit
Codec ID : A_AAC-2
Duration : 1 h 55 min
Bit rate : 96.0 kb/s
Channel(s) : 2 channels
Channel layout : L R
Sampling rate : 48.0 kHz
Frame rate : 23.438 FPS (2048 SPF)
Compression mode : Lossy
Stream size : 79.2 MiB (11%)
Title : iTunes
Language : Russian
Default : Yes
Forced : No
ENCODING_INFO : AC3 > AAC CBR 96kbps HE

Menu
00:00:00.000 : :00:00:00.000
00:09:41.748 : :00:09:41.748
00:18:27.148 : :00:18:27.148
00:26:49.566 : :00:26:49.566
00:35:57.197 : :00:35:57.197
00:43:24.727 : :00:43:24.727
00:52:22.473 : :00:52:22.473
01:02:01.468 : :01:02:01.468
01:11:18.649 : :01:11:18.649
01:20:52.222 : :01:20:52.222
01:29:11.680 : :01:29:11.680
01:41:01.097 : :01:41:01.097
Релиз от: &
piratbit.pw



Скачать Ночная жизнь через торрент https://d.radikal.ru/d04/2009/2e/e4446978a92a.jpg Скачать фильм Ночная жизнь через торрент бесплантно в хорошем качестве Описание: Когда двум друзьям-барменам отказывают в кредите на открытие собственного ночного клуба, они пытаются найти другие способы ... 10 10 4
Торрент: Зарегистрирован [2020-09-09 18:50] · скачан: 58 раз
Статус: √ проверено
Размер: 752 MB
Как cкачать? Как скачать Ночная жизнь через торрент | qTorrent

28-11-2019 20:33  

Отключить всю рекламу на сайте

    Дорогой пользователь! Огромная просьба, поблагодарите релизера, оцените раздачу и оставьте свои комментарий, если Вы скачали Ночная жизнь через торрент бесплатно! Внесите свою лепту в развитие PiratBit!
    Комментировать посты могут только пользователи прошедшие не сложную регистрацию
    Показать сообщения:    

    Ночная жизнь через торрент
    Скачать бесплатно Ночная жизнь
    Ночная жизнь скачать торрент
    Ночная жизнь смотреть онлайн
    Cкачать фильм Ночная жизнь бесплатно
    Ночная жизнь скачать торрент в хорошем качестве
    Ночная жизнь смотреть онлайн бесплатно в хорошем качестве


    Вы не можете начинать темы
    Вы не можете отвечать на сообщения
    Вы не можете редактировать свои сообщения
    Вы не можете удалять свои сообщения
    Вы не можете голосовать в опросах
    Вы не можете прикреплять файлы к сообщениям
    Вы можете скачивать файлы