Marvel's Avengers Deluxe Edition (супер цена) 159р. Внимание количество ограничено!!!

2 сезон

iTunes

iTunes

1

iTunes

iTunes

iTunes

WEBRip

iTunes

30
pack

Новость дня

ВАЖНО

!!Акция!!

Alien_RageХит недели

RePack

Horizon Zero Dawn

ИГРА 18+

pack

RePack

jed

!!Акция!!

Alien_Rage

RePack

fifa19

RePack

Assassins Creed: Odyssey

RePack

NEED FOR SPEED™ PAYBACK

4 сезон

9 сезон

Бесстыжие 9 сезон

Все сериалы

все сериалы на PB.wtf

RePack

FAR CRY 5
  

Бой / War (Сиддхарт Ананд) [2019, боевик, триллер, BDRip-HEVC 1080p] 2хMVO piratbit.pw

Бой через торрент piratbit.pw

Раздают: 3 [ 0 KB/s ]
Размер: 12.19 GB | Добавлен: 12 д. назад | Торрент скачан:78 раз
Скачать  

09-09-2020 06:45 Бой Скачать торрент  

Название: Бой
Оригинальное название: War
Год производства: 2019
Жанр: боевик, триллер
Режиссер: Сиддхарт Ананд
В ролях: Ритик Рошан, Тайгер Шрофф, Ваани Капур, Ашутош Рана, Анупурия Гоенка, Yash Raaj Singh, Машхур Амрохи, Санджив Ватса, Дипаннита Шарма, Сони Раздан

О фильме: Сотрудник спецслужб получает задание обезвредить бывшего коллегу и собственного наставника, который внезапно убил нескольких своих и теперь объявлен врагом государства. Противостояние становится для обоих делом чести и выливается в настоящую войну.



Страна: Индия
Студия: Yash Raj Films
Продолжительность: 02:33:06
Перевод: любительский многоголосый

Качество: BDRip-HEVC 1080p
Кодек: HEVC (x265)
Видео: 1920x804 (2.40:1), 8649 Кбит/сек, HEVC (Main10@L.4.1@High) 10 бит
Звук:
Аудио1: AC3, 6 ch, 640 Kbps - русский любительский многоголосый (Honey&Haseena)
Аудио2: AC3, 2 ch, 192 Kbps - русский любительский многоголосый (OnisFilms)
Аудио3: AC3, 6 ch, 640 Kbps - Hindi Original
Аудио4: AC3, 6 ch, 640 Kbps - Tamil
Аудио5: AC3, 6 ch, 640 Kbps - Telugu
Субтитры: Русские (SRT, на песни (Honey&Haseena))
Навигация по главам: Есть
x265 [info]: frame I: 935, Avg QP:18.03 kb/s: 22700.12
x265 [info]: frame P: 48353, Avg QP:19.58 kb/s: 14429.54
x265 [info]: frame B: 171187, Avg QP:21.46 kb/s: 6937.91
x265 [info]: Weighted P-Frames: Y:3.9% UV:3.2%
x265 [info]: Weighted B-Frames: Y:4.0% UV:3.0%
x265 [info]: consecutive B-frames: 8.8% 8.0% 8.1% 35.1% 10.3% 14.3% 6.8% 5.8% 1.4% 0.8% 0.5%
x265 [info]: encoded 220475 frames in 156340.63s (1.41 fps), 8647.76 kb/s, Avg QP:21.04
Формат : Matroska
Версия формата : Version 4
Размер файла : 12,2 Гбайт
Продолжительность : 2 ч. 33 м.
Общий поток : 11,4 Мбит/сек
Название фильма : Бой.War.2019.BDRip-HEVC.1080p
Дата кодирования : UTC 2020-09-07 13:38:02
Программа кодирования : mkvmerge v50.0.0 ('Awakenings') 64-bit
Библиотека кодирования : libebml v1.4.0 + libmatroska v1.6.2

Видео
Идентификатор : 1
Формат : HEVC
Формат/Информация : High Efficiency Video Coding
Профиль формата : Main 10@L4.1@High
Идентификатор кодека : V_MPEGH/ISO/HEVC
Продолжительность : 2 ч. 33 м.
Битрейт : 8 649 Кбит/сек
Ширина : 1 920 пикселей
Высота : 804 пикселя
Соотношение сторон : 2,40:1
Режим частоты кадров : Постоянный
Частота кадров : 24,000 кадра/сек
Цветовое пространство : YUV
Субдискретизация насыщенности : 4:2:0
Битовая глубина : 10 бит
Бит/(Пиксели*Кадры) : 0.233
Размер потока : 9,25 Гбайт (76%)
Заголовок : War.2019 / Rip by OldGamer
Библиотека кодирования : x265 3.4+4-g3ae3d7116:[Windows][GCC 10.2.0][64 bit] 10bit
Настройки программы : cpuid=1111039 / frame-threads=3 / numa-pools=8 / wpp / no-pmode / no-pme / no-psnr / no-ssim / log-level=2 / input-csp=1 / input-res=1920x804 / interlace=0 / total-frames=220475 / level-idc=41 / high-tier=1 / uhd-bd=0 / ref=5 / no-allow-non-conformance / no-repeat-headers / annexb / no-aud / no-hrd / info / hash=0 / no-temporal-layers / open-gop / min-keyint=23 / keyint=240 / gop-lookahead=0 / bframes=10 / b-adapt=2 / b-pyramid / bframe-bias=0 / rc-lookahead=60 / lookahead-slices=0 / scenecut=40 / hist-scenecut=0 / radl=0 / no-splice / no-intra-refresh / ctu=64 / min-cu-size=8 / rect / amp / max-tu-size=32 / tu-inter-depth=4 / tu-intra-depth=4 / limit-tu=1 / rdoq-level=2 / dynamic-rd=0.00 / no-ssim-rd / signhide / no-tskip / nr-intra=0 / nr-inter=0 / no-constrained-intra / no-strong-intra-smoothing / max-merge=5 / limit-refs=3 / no-limit-modes / me=3 / subme=7 / merange=57 / temporal-mvp / no-frame-dup / no-hme / weightp / weightb / no-analyze-src-pics / deblock=-3:-3 / no-sao / no-sao-non-deblock / rd=6 / selective-sao=0 / no-early-skip / rskip / no-fast-intra / no-tskip-fast / no-cu-lossless / b-intra / no-splitrd-skip / rdpenalty=0 / psy-rd=2.00 / psy-rdoq=1.00 / no-rd-refine / no-lossless / cbqpoffs=0 / crqpoffs=0 / rc=crf / crf=19.4 / qcomp=0.70 / qpstep=4 / stats-write=0 / stats-read=0 / vbv-maxrate=50000 / vbv-bufsize=50000 / vbv-init=0.9 / crf-max=0.0 / crf-min=0.0 / ipratio=1.40 / pbratio=1.30 / aq-mode=4 / aq-strength=0.80 / no-cutree / zone-count=1 / zones: / start-frame=214586 / end-frame=220463 / qp=36 / no-strict-cbr / qg-size=32 / no-rc-grain / qpmax=69 / qpmin=0 / no-const-vbv / sar=1 / overscan=0 / videoformat=5 / range=0 / colorprim=2 / transfer=2 / colormatrix=2 / chromaloc=0 / display-window=0 / cll=0,0 / min-luma=0 / max-luma=1023 / log2-max-poc-lsb=8 / vui-timing-info / vui-hrd-info / slices=1 / no-opt-qp-pps / no-opt-ref-list-length-pps / no-multi-pass-opt-rps / scenecut-bias=0.00 / hist-threshold=0.01 / no-opt-cu-delta-qp / no-aq-motion / no-hdr10 / no-hdr10-opt / no-dhdr10-opt / no-idr-recovery-sei / analysis-reuse-level=0 / analysis-save-reuse-level=0 / analysis-load-reuse-level=0 / scale-factor=0 / refine-intra=0 / refine-inter=0 / refine-mv=1 / refine-ctu-distortion=0 / no-limit-sao / ctu-info=0 / no-lowpass-dct / refine-analysis-type=0 / copy-pic=1 / max-ausize-factor=1.0 / no-dynamic-refine / no-single-sei / no-hevc-aq / no-svt / no-field / qp-adaptation-range=1.00 / no-scenecut-aware-qpconformance-window-offsets / right=0 / bottom=0 / decoder-max-rate=0
Язык : English
Default : Да
Forced : Нет

Аудио #1
Идентификатор : 2
Формат : AC-3
Формат/Информация : Audio Coding 3
Коммерческое название : Dolby Digital
Идентификатор кодека : A_AC3
Продолжительность : 2 ч. 32 м.
Вид битрейта : Постоянный
Битрейт : 640 Кбит/сек
Каналы : 6 каналов
Channel layout : L R C LFE Ls Rs
Частота : 48,0 КГц
Частота кадров : 31,250 кадров/сек (1536 SPF)
Метод сжатия : С потерями
Размер потока : 700 Мбайт (6%)
Заголовок : Профессиональный многоголосый (Honey&Haseena)
Язык : Russian
Service kind : Complete Main
Default : Да
Forced : Нет

Аудио #2
Идентификатор : 3
Формат : AC-3
Формат/Информация : Audio Coding 3
Коммерческое название : Dolby Digital
Идентификатор кодека : A_AC3
Продолжительность : 2 ч. 32 м.
Вид битрейта : Постоянный
Битрейт : 192 Кбит/сек
Каналы : 2 канала
Channel layout : L R
Частота : 48,0 КГц
Частота кадров : 31,250 кадров/сек (1536 SPF)
Метод сжатия : С потерями
Размер потока : 210 Мбайт (2%)
Заголовок : Любительский многоголосый (OnisFilms)
Язык : Russian
Service kind : Complete Main
Default : Нет
Forced : Нет

Аудио #3
Идентификатор : 4
Формат : AC-3
Формат/Информация : Audio Coding 3
Коммерческое название : Dolby Digital
Идентификатор кодека : A_AC3
Продолжительность : 2 ч. 32 м.
Вид битрейта : Постоянный
Битрейт : 640 Кбит/сек
Каналы : 6 каналов
Channel layout : L R C LFE Ls Rs
Частота : 48,0 КГц
Частота кадров : 31,250 кадров/сек (1536 SPF)
Метод сжатия : С потерями
Размер потока : 700 Мбайт (6%)
Заголовок : Hindi
Язык : Hindi
Service kind : Complete Main
Default : Нет
Forced : Нет

Аудио #4
Идентификатор : 5
Формат : AC-3
Формат/Информация : Audio Coding 3
Коммерческое название : Dolby Digital
Идентификатор кодека : A_AC3
Продолжительность : 2 ч. 32 м.
Вид битрейта : Постоянный
Битрейт : 640 Кбит/сек
Каналы : 6 каналов
Channel layout : L R C LFE Ls Rs
Частота : 48,0 КГц
Частота кадров : 31,250 кадров/сек (1536 SPF)
Метод сжатия : С потерями
Размер потока : 700 Мбайт (6%)
Заголовок : Tamil
Язык : Tamil
Service kind : Complete Main
Default : Нет
Forced : Нет

Аудио #5
Идентификатор : 6
Формат : AC-3
Формат/Информация : Audio Coding 3
Коммерческое название : Dolby Digital
Идентификатор кодека : A_AC3
Продолжительность : 2 ч. 32 м.
Вид битрейта : Постоянный
Битрейт : 640 Кбит/сек
Каналы : 6 каналов
Channel layout : L R C LFE Ls Rs
Частота : 48,0 КГц
Частота кадров : 31,250 кадров/сек (1536 SPF)
Метод сжатия : С потерями
Размер потока : 700 Мбайт (6%)
Заголовок : Telugu
Язык : Telugu
Service kind : Complete Main
Default : Нет
Forced : Нет

Текст
Идентификатор : 7
Формат : UTF-8
Идентификатор кодека : S_TEXT/UTF8
Идентификатор кодека/Информация : UTF-8 Plain Text
Продолжительность : 32 м. 39 с.
Битрейт : 20 бит/сек
Count of elements : 89
Размер потока : 4,87 Кбайт (0%)
Заголовок : На песни - Honey&Haseena
Язык : Russian
Default : Нет
Forced : Нет

Меню
00:00:00.000 : en:Глава 01
00:01:10.875 : en:Глава 02
00:04:48.000 : en:Глава 03
00:06:49.000 : en:Глава 04
00:08:17.500 : en:Глава 05
00:14:41.791 : en:Глава 06
00:21:09.000 : en:Глава 07
00:32:10.000 : en:Глава 08
00:39:54.375 : en:Глава 09
00:43:56.458 : en:Глава 10
00:50:33.583 : en:Глава 11
00:56:24.041 : en:Глава 12
01:07:31.375 : en:Глава 13
01:09:44.000 : en:Глава 14
01:13:18.791 : en:Глава 15
01:23:34.666 : en:Глава 16
01:33:05.583 : en:Глава 17
01:46:20.875 : en:Глава 18
01:54:35.125 : en:Глава 19
02:05:24.166 : en:Глава 20
02:13:13.875 : en:Глава 21
02:24:30.791 : en:Глава 22
02:28:53.875 : en:Глава 23


Релиз от: OldGamerpiratbit.pw



Скачать Бой через торрент https://c.radikal.ru/c29/2009/5d/3256356cac73.jpg Скачать фильм Бой через торрент бесплантно в хорошем качестве О фильме: Сотрудник спецслужб получает задание обезвредить бывшего коллегу и собственного наставника, который внезапно убил нескольких ... 10 10 2
Торрент: Зарегистрирован [2020-09-09 06:45] · скачан: 78 раз
Статус: √ проверено
Размер: 12.19 GB
Как cкачать? Как скачать Бой через торрент | qTorrent



Последний раз редактировалось: RealOldGamer (2020-09-12 06:43), всего редактировалось 2 раз(а)

28-11-2019 20:33  

Отключить всю рекламу на сайте

09-09-2020 21:38 Бой Скачать торрент  

Топик был перенесен из форума Оформление раздач (Кино, Видео и ТВ) в форум Фильмы [HD 720p, 1080p] (Хороший звук DUB, MVO)


Enigma2010piratbit.pw



11-09-2020 00:37 Бой Скачать торрент  

Топик был перенесен из форума Фильмы [HD 720p, 1080p] (Хороший звук DUB, MVO) в форум Индийское кино


bober100piratbit.pw



    Дорогой пользователь! Огромная просьба, поблагодарите релизера, оцените раздачу и оставьте свои комментарий, если Вы скачали Бой через торрент бесплатно! Внесите свою лепту в развитие PiratBit!
    Комментировать посты могут только пользователи прошедшие не сложную регистрацию
    Показать сообщения:    

    Бой через торрент
    Скачать бесплатно Бой
    Бой скачать торрент
    Бой смотреть онлайн
    Cкачать фильм Бой бесплатно
    Бой скачать торрент в хорошем качестве
    Бой смотреть онлайн бесплатно в хорошем качестве


    Вы не можете начинать темы
    Вы не можете отвечать на сообщения
    Вы не можете редактировать свои сообщения
    Вы не можете удалять свои сообщения
    Вы не можете голосовать в опросах
    Вы не можете прикреплять файлы к сообщениям
    Вы можете скачивать файлы