Ссылка на приватное зеркало нашего сайта всего за 1$. Внимание количество ограничено!!!

2 сезон

iTunes

1 сезон

1

2 сезон

2 сезон

iTunes

1 сезон

RePack

30

Ultimate

ВАЖНО

ИГРА 18+

pack

RePack

MK11
pack

Забери бонус

RePack

jed

!!Акция!!

Alien_Rage

RePack

fifa19

RePack

Assassins Creed: Odyssey

RePack

NEED FOR SPEED™ PAYBACK

4 сезон

9 сезон

Бесстыжие 9 сезон

Все сериалы

все сериалы на PB.wtf

RePack

FAR CRY 5
  

Дружить по-русски! / Inséparables (Варант Суджян) [2019, Комедия, HDRip-AVC] [DUB] [iTunes] от MediaBit piratbit.pw

Дружить по-русски! через торрент piratbit.pw

Размер: 751 MB | Добавлен: 2 мес. 20 д. назад | Торрент скачан:31 раз
Скачать  

07-09-2020 17:31 Дружить по-русски! Скачать торрент  


Дружить по-русски! / Inséparables
Информация о фильме:
Название: Дружить по-русски!
Оригинальное название: Inséparables
Год выхода: 2019
Жанр: Комедия
Режиссер: Варант Суджян

В ролях: Ахмед Силла, Альбан Иванов, Жюдит Эль Зейн, Орнелла Флёри, Амир Эль Касем, Кристиан Бюжо, Давид Салль, Жан-Филипп Риччи, Пьер-Мари Москони, Лоранс Яэль

Описание: Если ты родился во Франции, но c русской душой - ты веришь в дружбу и всегда приходишь на помощь, можешь собрать ППШ с закрытыми глазами и готов на оскорбление ответить ударом в зубы. И даже если ты чистокровный француз, ты знаешь - русские своих не бросают!

rating

Страна: Франция
Студия: CCJ Films, M6 Films, SND Groupe M6
Продолжительность: 01:37:05
Перевод: Дублированный - iTunes



Информация о файле:
Кодек: AVC
Формат: MKV
Качество: HDRip-AVC
Видео: MPEG-4 AVC, 720x302 (2.40:1), 24.000 fps, 986 kbps, 0.189
Аудио RU: AAC-HE, 2 ch, 48 kHz, 96 kbps
Навигация по главам: Есть



General
Unique ID : 292327656327222733190893581932078969847 (0xDBEC4239767F0E89292CB115099E33F7)
Complete name : D:uTorrentРипы_от_wolf1245_MediaBitInseparables 2019_wolf1245 & MediaBit.mkv
Format : Matroska
Format version : Version 4
File size : 751 MiB
Duration : 1 h 37 min
Overall bit rate : 1 082 kb/s
Movie name : Inseparables 2019_wolf1245 & MediaBit
Encoded date : UTC 2020-09-07 17:19:17
Writing application : mkvmerge v50.0.0 ('Awakenings') 64-bit
Writing library : libebml v1.4.0 + libmatroska v1.6.2

Video
ID : 1
Format : AVC
Format/Info : Advanced Video Codec
Format profile : High@L4.1
Format settings : CABAC / 12 Ref Frames
Format settings, CABAC : Yes
Format settings, Reference frames : 12 frames
Codec ID : V_MPEG4/ISO/AVC
Duration : 1 h 37 min
Bit rate : 986 kb/s
Width : 720 pixels
Height : 302 pixels
Display aspect ratio : 2.40:1
Frame rate mode : Constant
Frame rate : 24.000 FPS
Color space : YUV
Chroma subsampling : 4:2:0
Bit depth : 8 bits
Scan type : Progressive
Bits/(Pixel*Frame) : 0.189
Stream size : 684 MiB (91%)
Title : wolf1245 & MediaBit
Writing library : x264 core 157 r2958 57baac4
Encoding settings : cabac=1 / ref=12 / deblock=1:-3:-3 / analyse=0x3:0x133 / me=umh / subme=11 / psy=1 / psy_rd=1.00:0.15 / mixed_ref=1 / me_range=48 / chroma_me=1 / trellis=2 / 8x8dct=1 / cqm=0 / deadzone=21,11 / fast_pskip=0 / chroma_qp_offset=-3 / threads=10 / lookahead_threads=2 / sliced_threads=0 / nr=0 / decimate=0 / interlaced=0 / bluray_compat=0 / constrained_intra=0 / bframes=12 / b_pyramid=2 / b_adapt=2 / b_bias=0 / direct=3 / weightb=1 / open_gop=0 / weightp=2 / keyint=240 / keyint_min=24 / scenecut=40 / intra_refresh=0 / rc_lookahead=40 / rc=2pass / mbtree=0 / bitrate=986 / ratetol=1.0 / qcomp=0.60 / qpmin=0 / qpmax=69 / qpstep=4 / cplxblur=20.0 / qblur=0.5 / vbv_maxrate=50000 / vbv_bufsize=62500 / nal_hrd=none / filler=0 / ip_ratio=1.40 / pb_ratio=1.30 / aq=1:1.00
Language : French
Default : Yes
Forced : No
Color range : Limited
Color primaries : BT.709
Transfer characteristics : BT.709
Matrix coefficients : BT.709

Audio
ID : 2
Format : AAC LC SBR
Format/Info : Advanced Audio Codec Low Complexity with Spectral Band Replication
Commercial name : HE-AAC
Format settings : Implicit
Codec ID : A_AAC-2
Duration : 1 h 37 min
Bit rate : 96.0 kb/s
Channel(s) : 2 channels
Channel layout : L R
Sampling rate : 48.0 kHz
Frame rate : 23.438 FPS (2048 SPF)
Compression mode : Lossy
Stream size : 66.6 MiB (9%)
Title : DUB | iTunes
Language : Russian
Default : Yes
Forced : No

Menu
00:00:00.000 : :Chapitre 01
00:09:21.500 : :Chapitre 02
00:17:46.541 : :Chapitre 03
00:26:15.000 : :Chapitre 04
00:36:21.208 : :Chapitre 05
00:45:14.000 : :Chapitre 06
00:53:52.542 : :Chapitre 07
01:04:53.083 : :Chapitre 08
01:10:33.207 : :Chapitre 09
01:19:15.583 : :Chapitre 10
01:28:23.542 : :Chapitre 11
01:33:54.625 : :Chapitre 12
01:37:04.792 : :Chapitre 13
Релиз от: &
piratbit.pw



Скачать Дружить по-русски! через торрент https://a.radikal.ru/a13/2009/d0/2856ccc35e85.jpg Скачать фильм Дружить по-русски! через торрент бесплантно в хорошем качестве Описание: Если ты родился во Франции, но c русской душой - ты веришь в дружбу и всегда приходишь на помощь, можешь собрать ППШ с ... 7 10 3
Торрент: Зарегистрирован [2020-09-07 17:31] · скачан: 31 раз
Статус: √ проверено
Размер: 751 MB
Как cкачать? Как скачать Дружить по-русски! через торрент | qTorrent

28-11-2019 20:33  

Отключить всю рекламу на сайте

    Дорогой пользователь! Огромная просьба, поблагодарите релизера, оцените раздачу и оставьте свои комментарий, если Вы скачали Дружить по-русски! через торрент бесплатно! Внесите свою лепту в развитие PiratBit!
    Комментировать посты могут только пользователи прошедшие не сложную регистрацию
    Показать сообщения:    

    Дружить по-русски! через торрент
    Скачать бесплатно Дружить по-русски!
    Дружить по-русски! скачать торрент
    Дружить по-русски! смотреть онлайн
    Cкачать фильм Дружить по-русски! бесплатно
    Дружить по-русски! скачать торрент в хорошем качестве
    Дружить по-русски! смотреть онлайн бесплатно в хорошем качестве


    Вы не можете начинать темы
    Вы не можете отвечать на сообщения
    Вы не можете редактировать свои сообщения
    Вы не можете удалять свои сообщения
    Вы не можете голосовать в опросах
    Вы не можете прикреплять файлы к сообщениям
    Вы можете скачивать файлы