Ссылка на приватное зеркало нашего сайта всего за 1$. Внимание количество ограничено!!!

2 сезон

iTunes

1 сезон

1

2 сезон

2 сезон

iTunes

1 сезон

RePack

30

Ultimate

ВАЖНО

ИГРА 18+

pack

RePack

MK11
pack

Забери бонус

RePack

jed

!!Акция!!

Alien_Rage

RePack

fifa19

RePack

Assassins Creed: Odyssey

RePack

NEED FOR SPEED™ PAYBACK

4 сезон

9 сезон

Бесстыжие 9 сезон

Все сериалы

все сериалы на PB.wtf

RePack

FAR CRY 5
  

Видеорегистратор / Body Cam (Малик Бут) [2020 г., ужасы, детектив, триллер, WEB-DLRip, Дубляж "iTunes"] piratbit.pw

Видеорегистратор через торрент piratbit.pw

Раздают: 1 [ 0 KB/s ]
Размер: 708 MB | Добавлен: 2 мес. 18 д. назад | Торрент скачан:49 раз
Скачать  

06-09-2020 18:19 Видеорегистратор Скачать торрент  

Видеорегистратор / Body Cam
Год выпуска: 2020
Страна: США / BET Films, Paramount Players, Ace Entertainment
Жанр: ужасы, детектив, триллер
Продолжительность: 01:36:56
Перевод: Дубляж (iTunes)
«Защищать. Служить. Выжить»
Субтитры: русские форсированные - вшитые

Режиссер: Малик Бут

rating

В ролях: Мэри Джей Блайдж, Нат Вулф, Дэвид Зайас, Аника Нони Роуз, Дэвид Уоршофски, Йен Касселберри, Филип Форнах, Лара Грайс, Деметриус Гросс, Наима Рамос-Чепмен

Описание: В годовщину смерти подростка от рук полиции один из патрульных полицейских перестает отвечать по рации. Его истерзанное тело находят коллеги, а на записи с видеорегистратора женщина-полицейский Рене Ломито видит, как того подбрасывает вверх неведомая сила. Вскоре происходит убийство нескольких человек, в том числе полицейских, чем-то невидимым, и Рене решает расследовать дело сама.

Качество: WEB-DLRip
Формат: AVI
Видео кодек: DivX
Аудио кодек: MP3
Видео: 640x272 (2.35:1), 23.976 fps, DivX Codec 4.x ~883 kbps avg, 0.21 bit/pixel
Аудио: 48 kHz, MPEG Layer 3, 2 ch, ~128.00 kbps avg
скриншот   скриншот   скриншот   скриншот  

Общее
Полное имя : F:\ФИЛЬМЫ\Видеорегистратор.2020.D.WEB-DLRip.avi
Формат : AVI
Формат/Информация : Audio Video Interleave
Размер файла : 708 Мбайт
Продолжительность : 1 ч. 36 м.
Общий поток : 1 021 Кбит/сек
Программа кодирования : VirtualDubMod 1.5.10.3 | www.virtualdub-fr.org || (build 2550/release)
Библиотека кодирования : VirtualDubMod build 2550/release

Видео
Идентификатор : 0
Формат : MPEG-4 Visual
Профиль формата : Advanced Simple@L5
Настройки формата : BVOP3 / GMC3 / QPel
Параметр BVOP формата : 3
Параметр QPel формата : Да
Параметр GMC формата : 3 точки перехода
Параметр матрицы формата : Default (MPEG)
Идентификатор кодека : DIVX
Идентификатор кодека/Информация : Project Mayo
Идентификатор кодека/Подсказка : DivX 4
Продолжительность : 1 ч. 36 м.
Битрейт : 884 Кбит/сек
Ширина : 640 пикселей
Высота : 272 пикселя
Соотношение сторон : 2,35:1
Частота кадров : 23,976 (24000/1001) кадра/сек
Частота кадров в оригинале : 23,976 (23976/1000) кадра/сек
Цветовое пространство : YUV
Субдискретизация насыщенности : 4:2:0
Битовая глубина : 8 бит
Тип развёртки : Прогрессивная
Метод сжатия : С потерями
Бит/(Пиксели*Кадры) : 0.212
Размер потока : 613 Мбайт (87%)
Библиотека кодирования : XviD 1.2.1 (UTC 2008-12-04)

Аудио
Идентификатор : 1
Формат : MPEG Audio
Версия формата : Version 1
Профиль формата : Layer 3
Настройки формата : Joint stereo
Идентификатор кодека : 55
Идентификатор кодека/Подсказка : MP3
Продолжительность : 1 ч. 36 м.
Вид битрейта : Постоянный
Битрейт : 128 Кбит/сек
Каналы : 2 канала
Частота : 48,0 КГц
Частота кадров : 41,667 кадра/сек (1152 SPF)
Метод сжатия : С потерями
Размер потока : 88,5 Мбайт (13%)
Выравнивание : Соединение по промежуткам
Продолжительность промежутка : 42 мс. (1,00 видеокадр)
Время предзагрузки промежутка : 504 мс.
Библиотека кодирования : LAME3.99r
Настройки программы : -m j -V 4 -q 2 -lowpass 17 -b 128

piratbit.pw



Скачать Видеорегистратор через торрент http://pic1.kartinco.top/images/12/fqplo.jpg Скачать фильм Видеорегистратор через торрент бесплантно в хорошем качестве Описание: В годовщину смерти подростка от рук полиции один из патрульных полицейских перестает отвечать по рации. Его истерзанное тело ... 10 10 1
Торрент: Зарегистрирован [2020-09-06 18:19] · скачан: 49 раз
Статус: √ проверено
Размер: 708 MB
Как cкачать? Как скачать Видеорегистратор через торрент | qTorrent

% Раздел Тема Автор DL S | L
Фильмы 2019-2020 [DVDrip, WEB-DLRip, HDrip] (DUB, MVO) [ 1.34 GB ] Видеорегистратор / Оперативная съемка / Body Cam [2020 WEB-DLRip-AVC] от MediaBit Lithuania Скачать
4 | 0
# Фильмы [HD 720p, 1080p] (Хороший звук DUB, MVO) [ 11.84 GB ] Видеорегистратор / Body Cam [2020 BDRip 1080p] bober100 Скачать
6 | 0
# Фильмы [HD 720p, 1080p] (Хороший звук DUB, MVO) [ 4.68 GB ] Видеорегистратор / Body Cam [2020 BDRip 720p] bober100 Скачать
1 | 0
Фильмы 2019-2020 [DVDrip, WEB-DLRip, HDrip] (DUB, MVO) [ 1.45 GB ] Видеорегистратор / Body Cam [2020 HDRip] bober100 Скачать
3 | 0
Фильмы (WEB-DL 720p, 1080p) [ 3.78 GB ] Видеорегистратор / Body Cam [2020 WEB-DL 1080p] bober100 Скачать
2 | 0

28-11-2019 20:33  

Отключить всю рекламу на сайте

    Дорогой пользователь! Огромная просьба, поблагодарите релизера, оцените раздачу и оставьте свои комментарий, если Вы скачали Видеорегистратор через торрент бесплатно! Внесите свою лепту в развитие PiratBit!
    Комментировать посты могут только пользователи прошедшие не сложную регистрацию
    Показать сообщения:    

    Видеорегистратор через торрент
    Скачать бесплатно Видеорегистратор
    Видеорегистратор скачать торрент
    Видеорегистратор смотреть онлайн
    Cкачать фильм Видеорегистратор бесплатно
    Видеорегистратор скачать торрент в хорошем качестве
    Видеорегистратор смотреть онлайн бесплатно в хорошем качестве


    Вы не можете начинать темы
    Вы не можете отвечать на сообщения
    Вы не можете редактировать свои сообщения
    Вы не можете удалять свои сообщения
    Вы не можете голосовать в опросах
    Вы не можете прикреплять файлы к сообщениям
    Вы можете скачивать файлы