Ссылка на приватное зеркало нашего сайта всего за 1$. Внимание количество ограничено!!!

2 сезон

iTunes

1 сезон

1

2 сезон

2 сезон

iTunes

1 сезон

RePack

30

Новинка

ВАЖНО

ИГРА 18+

pack

RePack

MK11
pack

Забери бонус

RePack

jed

!!Акция!!

Alien_Rage

RePack

fifa19

RePack

Assassins Creed: Odyssey

RePack

NEED FOR SPEED™ PAYBACK

4 сезон

9 сезон

Бесстыжие 9 сезон

Все сериалы

все сериалы на PB.wtf

RePack

FAR CRY 5
  

Львица / Rogue (М. Дж. Бассетт) [2020, Боевик, BDRip-AVC] MVO [HDRezka Studio] - ExKinoRay piratbit.pw

Львица через торрент piratbit.pw

Раздают: 15 [ 0 KB/s ] Качают: 1 [ 0 KB/s ]
Размер: 1.45 GB | Добавлен: 2 мес. 28 д. назад | Торрент скачан:91 раз
Скачать  

06-09-2020 16:01 Львица Скачать торрент  

Название: Львица
Оригинальное название: Rogue
Год выпуска: 2020
Жанр: Боевик
Режиссер: М. Дж. Бассетт
В ролях: Меган Фокс, Джессика Саттон, Филип Уинчестер, Каллиопе Джейн Тейлор, Ли-Энн Либенберг, Брэндон Оре, Грег Крик, Адам Дикон, Тамер Барджаг, Сисанда Хэнна

О фильме: На одной из львиных ферм в Африке, где львов содержат, чтобы потом убить и продать по частям на чёрном рынке, происходит ЧП - львице удаётся сбежать и убить нескольких человек. Неподалёку от этого места отряд наёмников во главе с решительной Сэм высвобождает из заложников дочь губернатора и, уходя от многочисленных и хорошо вооружённых преследователей, находит убежище на той самой заброшенной львиной ферме.

rating

Страна: Великобритания, ЮАР
Студия: Grindstone Entertainment Group, Hassell Free Production, Mannequin Pictures
Продолжительность: 01:45:59
Перевод: Профессиональный (многоголосый, закадровый) | HDRezka Studio

Формат: MKV
Качество: BDRip-AVC
Видео: MPEG-4 AVC, 720x300 (2.40:1), 23.976 fps, 1512 Kbps, 0.292 bit/pixel
Аудио : 48 kHz, AC3, 5.1, 448 Kbps | MVO | RUS |
Субтитры: Русские (форс., полные (Наталья Раевская (Enigma)), английские
General
Unique ID : 220908084262540114867363744855148841425 (0xA631597526DBC8FBB1AB9A3BD6F1C9D1)
Complete name : D:\Rogue.2020.BDRip.AVC.Enigma.ExKinoRay.mkv
Format : Matroska
Format version : Version 2
File size : 1.45 GiB
Duration : 1 h 45 min
Overall bit rate : 1 961 kb/s
Movie name : Rogue 2020 from ExKinoRay
Encoded date : UTC 2020-09-06 15:18:05
Writing application : mkvmerge v5.6.0 ('Kenya Kane') built on May 27 2012 16:44:04
Writing library : libebml v1.2.3 + libmatroska v1.3.0

Video
ID : 1
Format : AVC
Format/Info : Advanced Video Codec
Format profile : High@L4.1
Format settings, CABAC : Yes
Format settings, ReFrames : 11 frames
Codec ID : V_MPEG4/ISO/AVC
Duration : 1 h 45 min
Bit rate : 1 512 kb/s
Width : 720 pixels
Height : 300 pixels
Display aspect ratio : 2.40:1
Frame rate mode : Constant
Frame rate : 23.976 (24000/1001) FPS
Original frame rate : 23.976 (23976/1000) FPS
Color space : YUV
Chroma subsampling : 4:2:0
Bit depth : 8 bits
Scan type : Progressive
Bits/(Pixel*Frame) : 0.292
Stream size : 1.09 GiB (75%)
Title : Enigma
Writing library : x264 core 152 r2851 ba24899
Encoding settings : cabac=1 / ref=11 / deblock=1:-2:-2 / analyse=0x3:0x113 / me=umh / subme=10 / psy=1 / psy_rd=1.02:0.05 / mixed_ref=1 / me_range=32 / chroma_me=1 / trellis=2 / 8x8dct=1 / cqm=0 / deadzone=21,11 / fast_pskip=0 / chroma_qp_offset=-3 / threads=9 / lookahead_threads=1 / sliced_threads=0 / nr=0 / decimate=0 / interlaced=0 / bluray_compat=0 / constrained_intra=0 / bframes=9 / b_pyramid=2 / b_adapt=2 / b_bias=0 / direct=3 / weightb=1 / open_gop=0 / weightp=2 / keyint=240 / keyint_min=23 / scenecut=40 / intra_refresh=0 / rc=2pass / mbtree=0 / bitrate=1512 / ratetol=1.0 / qcomp=0.60 / qpmin=0 / qpmax=51 / qpstep=4 / cplxblur=20.0 / qblur=0.5 / ip_ratio=1.30 / pb_ratio=1.20 / aq=1:1.00
Default : Yes
Forced : No
Color range : Limited
Color primaries : BT.709
Transfer characteristics : BT.709
Matrix coefficients : BT.709

Audio
ID : 2
Format : AC-3
Format/Info : Audio Coding 3
Mode extension : CM (complete main)
Format settings, Endianness : Big
Codec ID : A_AC3
Duration : 1 h 45 min
Bit rate mode : Constant
Bit rate : 448 kb/s
Channel(s) : 6 channels
Channel positions : Front: L C R, Side: L R, LFE
Sampling rate : 48.0 kHz
Frame rate : 31.250 FPS (1536 spf)
Compression mode : Lossy
Stream size : 340 MiB (23%)
Title : MVO (HDRezka Studio)
Language : Russian
Default : Yes
Forced : No

Text #1
ID : 3
Format : UTF-8
Codec ID : S_TEXT/UTF8
Codec ID/Info : UTF-8 Plain Text
Title : Forced
Language : Russian
Default : Yes
Forced : No

Text #2
ID : 4
Format : UTF-8
Codec ID : S_TEXT/UTF8
Codec ID/Info : UTF-8 Plain Text
Title : Full (Enigma)
Language : Russian
Default : No
Forced : No

Text #3
ID : 5
Format : UTF-8
Codec ID : S_TEXT/UTF8
Codec ID/Info : UTF-8 Plain Text
Language : English
Default : No
Forced : No

Menu
00:00:00.000 : en:Chapter 01
00:04:05.495 : en:Chapter 02
00:10:55.446 : en:Chapter 03
00:22:56.125 : en:Chapter 04
00:29:20.884 : en:Chapter 05
00:35:27.292 : en:Chapter 06
00:42:17.785 : en:Chapter 07
00:48:10.096 : en:Chapter 08
00:55:41.129 : en:Chapter 09
00:59:56.510 : en:Chapter 10
01:06:03.168 : en:Chapter 11
01:11:49.305 : en:Chapter 12
01:19:04.406 : en:Chapter 13
01:21:53.450 : en:Chapter 14
01:29:26.903 : en:Chapter 15
01:34:17.527 : en:Chapter 16


Релиз от:

Автор релиза: piratbit.pw



Скачать Львица через торрент https://c.radikal.ru/c38/2008/33/913ce25486d8.jpg Скачать фильм Львица через торрент бесплантно в хорошем качестве О фильме: На одной из львиных ферм в Африке, где львов содержат, чтобы потом убить и продать по частям на чёрном рынке, происходит ЧП - ... 7.8 10 4
Info! Золотая раздача, скачанное не засчитывается.
Торрент: Зарегистрирован [2020-09-06 16:01] · скачан: 91 раз
Статус: √ проверено
Размер: 1.45 GB
Как cкачать? Как скачать Львица через торрент | qTorrent

28-11-2019 20:33  

Отключить всю рекламу на сайте

06-09-2020 16:08 Львица Скачать торрент  

а чего такой рейтинг?piratbit.pw



    Дорогой пользователь! Огромная просьба, поблагодарите релизера, оцените раздачу и оставьте свои комментарий, если Вы скачали Львица через торрент бесплатно! Внесите свою лепту в развитие PiratBit!
    Комментировать посты могут только пользователи прошедшие не сложную регистрацию
    Показать сообщения:    

    Львица через торрент
    Скачать бесплатно Львица
    Львица скачать торрент
    Львица смотреть онлайн
    Cкачать фильм Львица бесплатно
    Львица скачать торрент в хорошем качестве
    Львица смотреть онлайн бесплатно в хорошем качестве


    Вы не можете начинать темы
    Вы не можете отвечать на сообщения
    Вы не можете редактировать свои сообщения
    Вы не можете удалять свои сообщения
    Вы не можете голосовать в опросах
    Вы не можете прикреплять файлы к сообщениям
    Вы можете скачивать файлы