Ссылка на приватное зеркало нашего сайта всего за 1$. Внимание количество ограничено!!!

2 сезон

iTunes

1 сезон

1

2 сезон

2 сезон

iTunes

1 сезон

RePack

30

Новинка

ВАЖНО

ИГРА 18+

pack

RePack

MK11
pack

Забери бонус

RePack

jed

!!Акция!!

Alien_Rage

RePack

fifa19

RePack

Assassins Creed: Odyssey

RePack

NEED FOR SPEED™ PAYBACK

4 сезон

9 сезон

Бесстыжие 9 сезон

Все сериалы

все сериалы на PB.wtf

RePack

FAR CRY 5
  

Томирис / Tomiris (Акан Сатаев) [2019, исторический, драма, экранизация, WEB-DLRip-AVC] [DUB] [iTunes] от MediaBit piratbit.pw

Томирис через торрент piratbit.pw

Раздают: 2 [ 0 KB/s ]
Размер: 2.58 GB | Добавлен: 2 мес. 22 д. назад | Торрент скачан:158 раз
Скачать  

06-09-2020 10:35 Томирис Скачать торрент  

«Царица, рожденная возвеличить степь»

Информация о фильме
Название: Томирис
Оригинальное название: Tomiris
Год выхода: 2019
Жанр: Драма, история
Режиссер: Акан Сатаев

В ролях: Альмира Турсын, Адиль Ахметов, Еркебулан Дайыров, Берик Айтжанов, Азамат Сатыбалды, Гассан Массуд, Илез Бадургов, Мурат Бисенбин, Аян Утепберген, Асылхан Толепов

О фильме:
Среди древних народов, населявших просторы Евразии, особо выделялись племена, называющие себя саками. Это были кочевники и великие воины степи. Начинается история с краткого жизнеописания отца Томирис – царя Спаргапа. Спаргап, имея право на царский трон, вовлечён в войну между родами саков – массагетов. Влиятельные вожди, среди которых выделяются алчные и хитроумные Каваз и Куртун, не спешат объединяться под единой властью, отстаивая свои интересы. Спаргап мечом и словом пытается объединить степные племена. В это тревожное время у него рождается дочь – Томирис. Её мать, Бопай, которую Спаргап очень любил, умирает при родах. Забота и воспитание ложатся на него, и Томирис с раннего возраста познаёт тяготы походной жизни и воинского быта.
Вероломные Каваз и Куртун устраивают заговор в результате чего Спаргап погибает. В степи опять наступает раздор и междоусобица. Маленькой Томирис удаётся уйти от убийц с верными людьми Спаргапа. За её голову негласно объявлена награда.
Томирис растет, скрываясь в лесах и живя охотой. Теперь ее цель вернуть законный трон и объединить степные племена. Но Томирис и не подозревает, что ей придется столкнуться с более могущественной угрозой, которая может стереть с лица земли всех саков...

rating
Страна: Казахстан
Студия: Казахфильм, Sataifilm
Продолжительность: 02:35:02
Перевод:
• Профессиональный (полное дублирование) | iTunes

Файл
Качество: WEB-DLRip-AVC
Формат: MKV
Кодек: MPEG-4 AVC
Видео: MPEG-4 AVC, 1024x428 (2.40:1), 1 999 kb/s, 0.190
Аудио: AC3, 48 kHz, 6 ch, ~384.00 kbps avg | русский | iTunes
Субтитры: Отсутствуют


General
Unique ID : 62722513778945593817059983761236196070 (0x2F2FEAAFF555EF59E723F262448A7AE6)
Complete name : D:\uTorrent\Рипы_от_wolf1245_MediaBit\Tomiris (2019) WEB-DLRip-AVC_wolf1245 & MediaBit.mkv
Format : Matroska
Format version : Version 4
File size : 2.58 GiB
Duration : 2 h 35 min
Overall bit rate : 2 383 kb/s
Movie name : Томирис / Tomiris (2019) WEB-DLRip-AVC_wolf1245 & MediaBit
Encoded date : UTC 2020-09-06 10:22:04
Writing application : mkvmerge v49.0.0 ('Sick Of Losing Soulmates') 64-bit
Writing library : libebml v1.4.0 + libmatroska v1.6.1

Video
ID : 1
Format : AVC
Format/Info : Advanced Video Codec
Format profile : High@L4.1
Format settings : CABAC / 11 Ref Frames
Format settings, CABAC : Yes
Format settings, Reference frames : 11 frames
Codec ID : V_MPEG4/ISO/AVC
Duration : 2 h 35 min
Bit rate : 1 999 kb/s
Width : 1 024 pixels
Height : 428 pixels
Display aspect ratio : 2.40:1
Frame rate mode : Constant
Frame rate : 24.000 FPS
Color space : YUV
Chroma subsampling : 4:2:0
Bit depth : 8 bits
Scan type : Progressive
Bits/(Pixel*Frame) : 0.190
Stream size : 2.16 GiB (84%)
Title : wolf1245 & MediaBit
Writing library : x264 core 157 r2958 57baac4
Encoding settings : cabac=1 / ref=11 / deblock=1:-3:-3 / analyse=0x3:0x133 / me=umh / subme=11 / psy=1 / psy_rd=1.00:0.15 / mixed_ref=1 / me_range=48 / chroma_me=1 / trellis=2 / 8x8dct=1 / cqm=0 / deadzone=21,11 / fast_pskip=0 / chroma_qp_offset=-3 / threads=10 / lookahead_threads=2 / sliced_threads=0 / nr=0 / decimate=0 / interlaced=0 / bluray_compat=0 / constrained_intra=0 / bframes=11 / b_pyramid=2 / b_adapt=2 / b_bias=4 / direct=3 / weightb=1 / open_gop=0 / weightp=2 / keyint=240 / keyint_min=24 / scenecut=40 / intra_refresh=0 / rc_lookahead=60 / rc=2pass / mbtree=0 / bitrate=1999 / ratetol=1.0 / qcomp=0.60 / qpmin=0 / qpmax=69 / qpstep=4 / cplxblur=20.0 / qblur=0.5 / vbv_maxrate=50000 / vbv_bufsize=62500 / nal_hrd=none / filler=0 / ip_ratio=1.40 / pb_ratio=1.30 / aq=1:1.00
Language : English
Default : Yes
Forced : No
Color range : Limited
Color primaries : BT.709
Transfer characteristics : BT.709
Matrix coefficients : BT.709

Audio
ID : 2
Format : AC-3
Format/Info : Audio Coding 3
Commercial name : Dolby Digital
Codec ID : A_AC3
Duration : 2 h 35 min
Bit rate mode : Constant
Bit rate : 384 kb/s
Channel(s) : 6 channels
Channel layout : L R C LFE Ls Rs
Sampling rate : 48.0 kHz
Frame rate : 31.250 FPS (1536 SPF)
Compression mode : Lossy
Stream size : 426 MiB (16%)
Title : DUB | iTunes
Language : Russian
Service kind : Complete Main
Default : Yes
Forced : No

Menu
00:00:00.000 : :Глава 1
00:08:02.958 : :Глава 2
00:16:17.333 : :Глава 3
00:25:56.291 : :Глава 4
00:34:26.998 : :Глава 5
00:43:34.082 : :Глава 6
00:52:23.498 : :Глава 7
01:01:27.331 : :Глава 8
01:08:29.206 : :Глава 9
01:16:14.331 : :Глава 10
01:25:02.539 : :Глава 11
01:32:09.705 : :Глава 12
01:39:21.538 : :Глава 13
01:48:07.746 : :Глава 14
01:57:23.454 : :Глава 15
02:06:28.204 : :Глава 16
02:16:14.870 : :Глава 17
02:24:12.328 : :Глава 18
Релиз от: & piratbit.pw



Скачать Томирис через торрент https://i112.fastpic.ru/big/2020/0906/00/4042300847978f23716ef3a2781b6e00.jpg Скачать фильм Томирис через торрент бесплантно в хорошем качестве О фильме:Среди древних народов, населявших просторы Евразии, особо выделялись племена, называющие себя саками. Это были кочевники и великие ... 9.6 10 8
Info! Золотая раздача, скачанное не засчитывается.
Торрент: Зарегистрирован [2020-09-06 10:35] · скачан: 158 раз
Статус: √ проверено
Размер: 2.58 GB
Как cкачать? Как скачать Томирис через торрент | qTorrent

28-11-2019 20:33  

Отключить всю рекламу на сайте

06-09-2020 13:19 Томирис Скачать торрент  

piratbit.pw



03-11-2020 14:28 Томирис Скачать торрент  

фильм отличныйpiratbit.pw



    Дорогой пользователь! Огромная просьба, поблагодарите релизера, оцените раздачу и оставьте свои комментарий, если Вы скачали Томирис через торрент бесплатно! Внесите свою лепту в развитие PiratBit!
    Комментировать посты могут только пользователи прошедшие не сложную регистрацию
    Показать сообщения:    

    Томирис через торрент
    Скачать бесплатно Томирис
    Томирис скачать торрент
    Томирис смотреть онлайн
    Cкачать фильм Томирис бесплатно
    Томирис скачать торрент в хорошем качестве
    Томирис смотреть онлайн бесплатно в хорошем качестве


    Вы не можете начинать темы
    Вы не можете отвечать на сообщения
    Вы не можете редактировать свои сообщения
    Вы не можете удалять свои сообщения
    Вы не можете голосовать в опросах
    Вы не можете прикреплять файлы к сообщениям
    Вы можете скачивать файлы