Ссылка на приватное зеркало нашего сайта всего за 1$. Внимание количество ограничено!!!

2 сезон

iTunes

1 сезон

1

2 сезон

2 сезон

iTunes

1 сезон

RePack

30

Новинка

ВАЖНО

ИГРА 18+

pack

RePack

MK11
pack

Забери бонус

RePack

jed

!!Акция!!

Alien_Rage

RePack

fifa19

RePack

Assassins Creed: Odyssey

RePack

NEED FOR SPEED™ PAYBACK

4 сезон

9 сезон

Бесстыжие 9 сезон

Все сериалы

все сериалы на PB.wtf

RePack

FAR CRY 5
  

Видеорегистратор / Оперативная съемка / Body Cam (Малик Бут) [2020, ужасы, детектив, триллер, WEB-DLRip-AVC] [DUB] [iTunes] от MediaBit piratbit.pw

Видеорегистратор через торрент piratbit.pw

Раздают: 3 [ 0 KB/s ]
Размер: 1.34 GB | Добавлен: 2 мес. 23 д. назад | Торрент скачан:139 раз
Скачать  

05-09-2020 14:20 Видеорегистратор Скачать торрент  


Видеорегистратор / Body Cam
Информация о фильме:
Название: Видеорегистратор
Оригинальное название: Body Cam
Год выхода: 2020
Жанр: ужасы, детектив, триллер
Режиссер: Малик Бут

В ролях: Мэри Джей Блайдж, Нат Вулф, Дэвид Зайас, Аника Нони Роуз, Дэвид Уоршофски, Йен Касселберри, Филип Форнах, Лара Грайс, Деметриус Гросс, Наима Рамос-Чепмен

Описание: В годовщину смерти подростка от рук полиции один из патрульных полицейских перестает отвечать по рации. Его истерзанное тело находят коллеги, а на записи с видеорегистратора женщина-полицейский Рене Ломито видит, как того подбрасывает вверх неведомая сила. Вскоре происходит убийство нескольких человек, в том числе полицейских, чем-то невидимым, и Рене решает расследовать дело сама.

rating

Страна: США
Студия: Ace Entertainment, Paramount Players
Продолжительность: 01:36:39
Перевод: Дублированный - iTunes



Информация о файле:
Кодек: AVC
Формат: MKV
Качество: WEB-DLRip-AVC
Видео: MPEG-4 AVC, 1024x428 (2.40:1), 1 588 kb/s, 23.976 fps, 0.151
Аудио RU: AC3, 6 ch, 48 kHz, 384 kbps
Субтитры: Russian (Full, Forced), Ukrainian (Full), English (Full, SDH)
Навигация по главам: Есть



General
Unique ID : 165665603598932404553930082472629406146 (0x7CA208E04DFBF8F66AF63FDF806889C2)
Complete name : D:uTorrentРипы_от_wolf1245_MediaBitBody Cam (2020)_wolf1245 & MediaBit.mkv
Format : Matroska
Format version : Version 4
File size : 1.34 GiB
Duration : 1 h 36 min
Overall bit rate : 1 974 kb/s
Movie name : Body Cam (2020)_wolf1245 & MediaBit
Encoded date : UTC 2020-09-05 14:06:23
Writing application : mkvmerge v49.0.0 ('Sick Of Losing Soulmates') 64-bit
Writing library : libebml v1.4.0 + libmatroska v1.6.1
Cover : Yes
Attachments : cover

Video
ID : 1
Format : AVC
Format/Info : Advanced Video Codec
Format profile : High@L4.1
Format settings : CABAC / 11 Ref Frames
Format settings, CABAC : Yes
Format settings, Reference frames : 11 frames
Codec ID : V_MPEG4/ISO/AVC
Duration : 1 h 36 min
Bit rate : 1 588 kb/s
Width : 1 024 pixels
Height : 428 pixels
Display aspect ratio : 2.40:1
Frame rate mode : Constant
Frame rate : 23.976 (24000/1001) FPS
Color space : YUV
Chroma subsampling : 4:2:0
Bit depth : 8 bits
Scan type : Progressive
Bits/(Pixel*Frame) : 0.151
Stream size : 1.08 GiB (80%)
Title : wolf1245 & MediaBit
Writing library : x264 core 157 r2958 57baac4
Encoding settings : cabac=1 / ref=11 / deblock=1:-3:-3 / analyse=0x3:0x133 / me=umh / subme=11 / psy=1 / psy_rd=1.00:0.15 / mixed_ref=1 / me_range=48 / chroma_me=1 / trellis=2 / 8x8dct=1 / cqm=0 / deadzone=21,11 / fast_pskip=0 / chroma_qp_offset=-3 / threads=10 / lookahead_threads=2 / sliced_threads=0 / nr=0 / decimate=0 / interlaced=0 / bluray_compat=0 / constrained_intra=0 / bframes=11 / b_pyramid=2 / b_adapt=2 / b_bias=0 / direct=3 / weightb=1 / open_gop=0 / weightp=2 / keyint=240 / keyint_min=24 / scenecut=40 / intra_refresh=0 / rc_lookahead=60 / rc=crf / mbtree=0 / crf=18.5 / qcomp=0.60 / qpmin=0 / qpmax=69 / qpstep=4 / vbv_maxrate=50000 / vbv_bufsize=62500 / crf_max=20.0 / nal_hrd=none / filler=0 / ip_ratio=1.40 / pb_ratio=1.30 / aq=1:1.00
Default : Yes
Forced : No
Color range : Limited
Color primaries : BT.709
Transfer characteristics : BT.709
Matrix coefficients : BT.709

Audio
ID : 2
Format : AC-3
Format/Info : Audio Coding 3
Commercial name : Dolby Digital
Codec ID : A_AC3
Duration : 1 h 36 min
Bit rate mode : Constant
Bit rate : 384 kb/s
Channel(s) : 6 channels
Channel layout : L R C LFE Ls Rs
Sampling rate : 48.0 kHz
Frame rate : 31.250 FPS (1536 SPF)
Compression mode : Lossy
Stream size : 265 MiB (19%)
Title : [DUB] / iTunes
Language : Russian
Service kind : Complete Main
Default : Yes
Forced : No

Text #1
ID : 3
Format : UTF-8
Codec ID : S_TEXT/UTF8
Codec ID/Info : UTF-8 Plain Text
Duration : 1 h 36 min
Bit rate : 58 b/s
Count of elements : 709
Stream size : 41.5 KiB (0%)
Title : Full-length
Language : Russian
Default : No
Forced : No

Text #2
ID : 4
Format : UTF-8
Codec ID : S_TEXT/UTF8
Codec ID/Info : UTF-8 Plain Text
Duration : 1 h 32 min
Bit rate : 0 b/s
Count of elements : 17
Stream size : 666 Bytes (0%)
Title : Forced
Language : Russian
Default : No
Forced : No

Text #3
ID : 5
Format : UTF-8
Codec ID : S_TEXT/UTF8
Codec ID/Info : UTF-8 Plain Text
Duration : 1 h 36 min
Bit rate : 60 b/s
Count of elements : 709
Stream size : 42.7 KiB (0%)
Title : Full-length
Language : Ukrainian
Default : No
Forced : No

Text #4
ID : 6
Format : UTF-8
Codec ID : S_TEXT/UTF8
Codec ID/Info : UTF-8 Plain Text
Duration : 1 h 29 min
Bit rate : 40 b/s
Count of elements : 827
Stream size : 26.7 KiB (0%)
Title : Full-length
Language : English
Default : No
Forced : No

Text #5
ID : 7
Format : UTF-8
Codec ID : S_TEXT/UTF8
Codec ID/Info : UTF-8 Plain Text
Duration : 1 h 29 min
Bit rate : 44 b/s
Count of elements : 991
Stream size : 29.5 KiB (0%)
Title : SDH
Language : English
Default : No
Forced : No

Menu
00:00:00.000 : :1
00:07:54.057 : :2
00:13:20.466 : :3
00:21:47.473 : :4
00:29:31.395 : :5
00:36:30.147 : :6
00:43:18.263 : :7
00:50:36.826 : :8
00:57:42.001 : :9
01:04:23.360 : :10
01:13:07.384 : :11
01:20:50.221 : :12
01:30:02.064 : :13
Релиз от: &
piratbit.pw



Скачать Видеорегистратор через торрент http://c.radikal.ru/c14/2005/52/4c991ab55d50.jpg Скачать фильм Видеорегистратор через торрент бесплантно в хорошем качестве Описание: В годовщину смерти подростка от рук полиции один из патрульных полицейских перестает отвечать по рации. Его истерзанное тело ... 8.8 10 8
Торрент: Зарегистрирован [2020-09-05 14:20] · скачан: 139 раз
Статус: √ проверено
Размер: 1.34 GB
Как cкачать? Как скачать Видеорегистратор через торрент | qTorrent

28-11-2019 20:33  

Отключить всю рекламу на сайте

02-11-2020 18:23 Видеорегистратор Скачать торрент  

Смотрибельно. Люблю, когда мусорков терзают piratbit.pw



    Дорогой пользователь! Огромная просьба, поблагодарите релизера, оцените раздачу и оставьте свои комментарий, если Вы скачали Видеорегистратор через торрент бесплатно! Внесите свою лепту в развитие PiratBit!
    Комментировать посты могут только пользователи прошедшие не сложную регистрацию
    Показать сообщения:    

    Видеорегистратор через торрент
    Скачать бесплатно Видеорегистратор
    Видеорегистратор скачать торрент
    Видеорегистратор смотреть онлайн
    Cкачать фильм Видеорегистратор бесплатно
    Видеорегистратор скачать торрент в хорошем качестве
    Видеорегистратор смотреть онлайн бесплатно в хорошем качестве


    Вы не можете начинать темы
    Вы не можете отвечать на сообщения
    Вы не можете редактировать свои сообщения
    Вы не можете удалять свои сообщения
    Вы не можете голосовать в опросах
    Вы не можете прикреплять файлы к сообщениям
    Вы можете скачивать файлы