Ссылка на приватное зеркало нашего сайта всего за 1$. Внимание количество ограничено!!!

2 сезон

iTunes

1 сезон

1

2 сезон

2 сезон

iTunes

1 сезон

RePack

30

Ultimate

ВАЖНО

ИГРА 18+

pack

RePack

MK11
pack

Забери бонус

RePack

jed

!!Акция!!

Alien_Rage

RePack

fifa19

RePack

Assassins Creed: Odyssey

RePack

NEED FOR SPEED™ PAYBACK

4 сезон

9 сезон

Бесстыжие 9 сезон

Все сериалы

все сериалы на PB.wtf

RePack

FAR CRY 5
  

Призраки замка Маргам / The Haunting of Margam Castle (Эндрю Джонс) [2020, Ужасы, мистика, WEB-DLRip-AVC] [MVO] [MUZOBOZ@] от MediaBit piratbit.pw

Призраки замка Маргам через торрент piratbit.pw

Раздают: 2 [ 0 KB/s ]
Размер: 1.76 GB | Добавлен: 2 мес. 26 д. назад | Торрент скачан:99 раз
Скачать  

04-09-2020 14:13 Призраки замка Маргам Скачать торрент  


Призраки замка Маргам / The Haunting of Margam Castle
Информация о фильме:
Название: Призраки замка Маргам
Оригинальное название: The Haunting of Margam Castle
Год выхода: 2020
Жанр: Ужасы, мистика
Режиссер: Эндрю Джонс

В ролях: Кэролайн Манро, Джэйн Мэрроу, Деррен Несбитт, Вернон Добчефф, Дерек Нельсон, Гэррик Хэйгон, Саймон Бэмфорд, Мадс Коудал, Джуди Мэтисон, Сара Ди

Описание: Несбитт и Мерроу – опытные медиумы, которые решили помочь небольшой группе американских психологов, приехавшие на данную территорию, чтобы пристально исследовать таинственный старинный замок Маргам. Наивные глупцы не обращали внимания на различные страшные слухи и легенды. Среди жителей США оказался талантливый медик Билл Дарклайтер, который понимает, что новые приятели могут помочь распутать загадочное дело, связанное с университетом.

rating

Страна: Великобритания
Студия: North Bank Entertainment
Продолжительность: 01:21:17
Перевод: Любительский (многоголосый, закадровый) - @MUZOBOZ@



Информация о файле:
Кодек: AVC
Формат: MKV
Качество: WEB-DLRip-AVC
Видео: MPEG-4 AVC, 1024x434 (2.35:1), 2 904 kbps, 23.976 fps, 0.273
Аудио RU: AC3, 2 ch, 48 kHz, 192 kbps
Субтитры: Английские
Навигация по главам: Есть



General
Unique ID : 314415062684049161739625235445728060783 (0xEC8A236F6CCA611A3C642429ACE6A56F)
Complete name : D:uTorrentРипы_от_wolf1245_MediaBitПризраки замка Маргам - The Haunting of Margam Castle (2020)_wolf1245 & MediaBit.mkv
Format : Matroska
Format version : Version 4
File size : 1.76 GiB
Duration : 1 h 21 min
Overall bit rate : 3 092 kb/s
Movie name : Призраки замка Маргам / The Haunting of Margam Castle (2020)_wolf1245 & MediaBit
Encoded date : UTC 2020-09-04 13:58:00
Writing application : mkvmerge v49.0.0 ('Sick Of Losing Soulmates') 64-bit
Writing library : libebml v1.4.0 + libmatroska v1.6.1

Video
ID : 1
Format : AVC
Format/Info : Advanced Video Codec
Format profile : High@L4.1
Format settings : CABAC / 11 Ref Frames
Format settings, CABAC : Yes
Format settings, Reference frames : 11 frames
Codec ID : V_MPEG4/ISO/AVC
Duration : 1 h 21 min
Bit rate : 2 904 kb/s
Width : 1 024 pixels
Height : 434 pixels
Display aspect ratio : 2.35:1
Frame rate mode : Constant
Frame rate : 23.976 (24000/1001) FPS
Color space : YUV
Chroma subsampling : 4:2:0
Bit depth : 8 bits
Scan type : Progressive
Bits/(Pixel*Frame) : 0.273
Stream size : 1.65 GiB (94%)
Title : wolf1245 & MediaBit
Writing library : x264 core 157 r2958 57baac4
Encoding settings : cabac=1 / ref=11 / deblock=1:-3:-3 / analyse=0x3:0x133 / me=umh / subme=11 / psy=1 / psy_rd=1.00:0.15 / mixed_ref=1 / me_range=48 / chroma_me=1 / trellis=2 / 8x8dct=1 / cqm=0 / deadzone=21,11 / fast_pskip=0 / chroma_qp_offset=-3 / threads=10 / lookahead_threads=2 / sliced_threads=0 / nr=0 / decimate=0 / interlaced=0 / bluray_compat=0 / constrained_intra=0 / bframes=11 / b_pyramid=2 / b_adapt=2 / b_bias=4 / direct=3 / weightb=1 / open_gop=0 / weightp=2 / keyint=240 / keyint_min=24 / scenecut=40 / intra_refresh=0 / rc_lookahead=60 / rc=2pass / mbtree=0 / bitrate=2904 / ratetol=1.0 / qcomp=0.60 / qpmin=0 / qpmax=69 / qpstep=4 / cplxblur=20.0 / qblur=0.5 / vbv_maxrate=50000 / vbv_bufsize=62500 / nal_hrd=none / filler=0 / ip_ratio=1.40 / pb_ratio=1.30 / aq=1:1.00
Language : English
Default : Yes
Forced : No
Color range : Limited
Color primaries : BT.709
Transfer characteristics : BT.709
Matrix coefficients : BT.709

Audio
ID : 2
Format : AC-3
Format/Info : Audio Coding 3
Commercial name : Dolby Digital
Codec ID : A_AC3
Duration : 1 h 21 min
Bit rate mode : Constant
Bit rate : 192 kb/s
Channel(s) : 2 channels
Channel layout : L R
Sampling rate : 48.0 kHz
Frame rate : 31.250 FPS (1536 SPF)
Compression mode : Lossy
Stream size : 112 MiB (6%)
Title : MVO [@MUZOBOZ@] MediaBit
Language : Russian
Service kind : Complete Main
Default : Yes
Forced : No

Text
ID : 3
Format : UTF-8
Codec ID : S_TEXT/UTF8
Codec ID/Info : UTF-8 Plain Text
Duration : 1 h 6 min
Bit rate : 45 b/s
Count of elements : 745
Stream size : 22.2 KiB (0%)
Language : English
Default : No
Forced : No

Menu
00:00:00.000 : :1
00:04:39.000 : :2
00:13:51.000 : :3
00:18:35.000 : :4
00:28:39.000 : :5
00:41:28.000 : :6
00:50:10.000 : :7
00:59:43.000 : :8
01:06:35.000 : :9
01:14:44.000 : :10
Релиз от: &
piratbit.pw



Скачать Призраки замка Маргам через торрент https://b.radikal.ru/b42/2009/a6/112471c37cdd.jpg Скачать фильм Призраки замка Маргам через торрент бесплантно в хорошем качестве Описание: Несбитт и Мерроу – опытные медиумы, которые решили помочь небольшой группе американских психологов, приехавшие на данную ... 10 10 3
Торрент: Зарегистрирован [2020-09-04 14:13] · скачан: 99 раз
Статус: T временная
Размер: 1.76 GB
Как cкачать? Как скачать Призраки замка Маргам через торрент | qTorrent

28-11-2019 20:33  

Отключить всю рекламу на сайте

    Дорогой пользователь! Огромная просьба, поблагодарите релизера, оцените раздачу и оставьте свои комментарий, если Вы скачали Призраки замка Маргам через торрент бесплатно! Внесите свою лепту в развитие PiratBit!
    Комментировать посты могут только пользователи прошедшие не сложную регистрацию
    Показать сообщения:    

    Призраки замка Маргам через торрент
    Скачать бесплатно Призраки замка Маргам
    Призраки замка Маргам скачать торрент
    Призраки замка Маргам смотреть онлайн
    Cкачать фильм Призраки замка Маргам бесплатно
    Призраки замка Маргам скачать торрент в хорошем качестве
    Призраки замка Маргам смотреть онлайн бесплатно в хорошем качестве


    Вы не можете начинать темы
    Вы не можете отвечать на сообщения
    Вы не можете редактировать свои сообщения
    Вы не можете удалять свои сообщения
    Вы не можете голосовать в опросах
    Вы не можете прикреплять файлы к сообщениям
    Вы можете скачивать файлы