Ссылка на приватное зеркало нашего сайта всего за 1$. Внимание количество ограничено!!!

2 сезон

iTunes

1 сезон

1

2 сезон

2 сезон

iTunes

1 сезон

RePack

30

Ultimate

ВАЖНО

ИГРА 18+

pack

RePack

MK11
pack

Забери бонус

RePack

jed

!!Акция!!

Alien_Rage

RePack

fifa19

RePack

Assassins Creed: Odyssey

RePack

NEED FOR SPEED™ PAYBACK

4 сезон

9 сезон

Бесстыжие 9 сезон

Все сериалы

все сериалы на PB.wtf

RePack

FAR CRY 5
  

Видовс Пойнт / Widow's Point (Грег Ламберсон) [2019, Триллер, WEB-DLRip-AVC] [MVO] [Синема Ус ] от MediaBit piratbit.pw

Видовс Пойнт через торрент piratbit.pw

Раздают: 1 [ 0 KB/s ]
Размер: 1.68 GB | Добавлен: 2 мес. 27 д. назад | Торрент скачан:73 раза
Скачать  

04-09-2020 03:42 Видовс Пойнт Скачать торрент  


Видовс Пойнт / Widow's Point
Информация о фильме:
Название: Видовс Пойнт
Оригинальное название: Widow's Point
Год выхода: 2019
Жанр: Триллер
Режиссер: Грег Ламберсон

В ролях: Крэйг Шеффер, КейтЛинн Ньюберри, Доминик Люонго, Каелин Ламберсон, Джон Ренна, Ричард Саттервайт, Майкл Турбер, Уиллоу Анвар, Ким Пьяцца, Пол МакГиннис

Описание: Писатель, специализирующийся на жанре ужасов, ради пиара будущей книги решает провести три дня взаперти на печально известном маяке Видовс Пойнт, где на протяжении десятилетий таинственным и трагическим образом погибали люди. Однако, сверхъестественные силы, обитающие на нём, решают преподать незваному гостю кровавый урок.

rating

Страна: США
Студия: Kwakutl Films
Продолжительность: 01:27:47
Перевод: Любительский (многоголосый, закадровый) - Синема Ус



Информация о файле:
Кодек: AVC
Формат: MKV
Качество: WEB-DLRip-AVC
Видео: MPEG-4 AVC, 1024х574 (16:9), 2 541 kb/s, 23.976 fps, 0.180
Аудио RU: AC3, 2 ch, 48 kHz, 192 kbps
Субтитры: Английские
Навигация по главам: Есть



General
Unique ID : 194986809076530695454491196748082469130 (0x92B117EB6DA4EACACD713995B600590A)
Complete name : D:uTorrentВидовс Пойнт - Widow's Point (2019)_wolf1245 & MediaBit.mkv
Format : Matroska
Format version : Version 4
File size : 1.68 GiB
Duration : 1 h 27 min
Overall bit rate : 2 733 kb/s
Movie name : Видовс Пойнт / Widow's Point (2019)_wolf1245 & MediaBit
Encoded date : UTC 2020-09-04 03:22:31
Writing application : mkvmerge v49.0.0 ('Sick Of Losing Soulmates') 64-bit
Writing library : libebml v1.4.0 + libmatroska v1.6.1
Video
ID : 1
Format : AVC
Format/Info : Advanced Video Codec
Format profile : High@L4.1
Format settings : CABAC / 11 Ref Frames
Format settings, CABAC : Yes
Format settings, Reference frames : 11 frames
Codec ID : V_MPEG4/ISO/AVC
Duration : 1 h 27 min
Bit rate : 2 541 kb/s
Width : 1 024 pixels
Height : 574 pixels
Display aspect ratio : 16:9
Frame rate mode : Constant
Frame rate : 23.976 (24000/1001) FPS
Color space : YUV
Chroma subsampling : 4:2:0
Bit depth : 8 bits
Scan type : Progressive
Bits/(Pixel*Frame) : 0.180
Stream size : 1.56 GiB (93%)
Title : wolf1245 & MediaBit
Writing library : x264 core 157 r2958 57baac4
Encoding settings : cabac=1 / ref=11 / deblock=1:-3:-3 / analyse=0x3:0x133 / me=umh / subme=11 / psy=1 / psy_rd=1.00:0.15 / mixed_ref=1 / me_range=48 / chroma_me=1 / trellis=2 / 8x8dct=1 / cqm=0 / deadzone=21,11 / fast_pskip=0 / chroma_qp_offset=-3 / threads=10 / lookahead_threads=2 / sliced_threads=0 / nr=0 / decimate=0 / interlaced=0 / bluray_compat=0 / constrained_intra=0 / bframes=11 / b_pyramid=2 / b_adapt=2 / b_bias=4 / direct=3 / weightb=1 / open_gop=0 / weightp=2 / keyint=240 / keyint_min=24 / scenecut=40 / intra_refresh=0 / rc_lookahead=60 / rc=2pass / mbtree=0 / bitrate=2541 / ratetol=1.0 / qcomp=0.60 / qpmin=0 / qpmax=69 / qpstep=4 / cplxblur=20.0 / qblur=0.5 / vbv_maxrate=50000 / vbv_bufsize=62500 / nal_hrd=none / filler=0 / ip_ratio=1.40 / pb_ratio=1.30 / aq=1:1.00
Language : English
Default : Yes
Forced : No
Color range : Limited
Color primaries : BT.709
Transfer characteristics : BT.709
Matrix coefficients : BT.709

Audio
ID : 2
Format : AC-3
Format/Info : Audio Coding 3
Commercial name : Dolby Digital
Codec ID : A_AC3
Duration : 1 h 27 min
Bit rate mode : Constant
Bit rate : 192 kb/s
Channel(s) : 2 channels
Channel layout : L R
Sampling rate : 48.0 kHz
Frame rate : 31.250 FPS (1536 SPF)
Compression mode : Lossy
Stream size : 121 MiB (7%)
Title : MVO [Синема УС] MediaBit
Language : Russian
Service kind : Complete Main
Default : Yes
Forced : No

Text
ID : 3
Format : UTF-8
Codec ID : S_TEXT/UTF8
Codec ID/Info : UTF-8 Plain Text
Duration : 1 h 27 min
Bit rate : 42 b/s
Count of elements : 1047
Stream size : 27.2 KiB (0%)
Language : English
Default : No
Forced : No

Menu
00:00:00.000 : :1
00:01:57.000 : :2
00:12:09.000 : :3
00:19:56.000 : :4
00:27:19.000 : :5
00:37:40.000 : :6
00:45:13.000 : :7
00:54:54.000 : :8
01:05:41.000 : :9
01:14:58.000 : :10
01:26:04.000 : :11
Релиз от: &
piratbit.pw



Скачать Видовс Пойнт через торрент https://c.radikal.ru/c31/2009/ce/4355fcb09f87.jpg Скачать фильм Видовс Пойнт через торрент бесплантно в хорошем качестве Описание: Писатель, специализирующийся на жанре ужасов, ради пиара будущей книги решает провести три дня взаперти на печально известном ... 10 10 4
Торрент: Зарегистрирован [2020-09-04 03:42] · скачан: 73 раз
Статус: √ проверено
Размер: 1.68 GB
Как cкачать? Как скачать Видовс Пойнт через торрент | qTorrent

28-11-2019 20:33  

Отключить всю рекламу на сайте

07-09-2020 16:01 Видовс Пойнт Скачать торрент  

Описание напомнило ВИЙpiratbit.pw



    Дорогой пользователь! Огромная просьба, поблагодарите релизера, оцените раздачу и оставьте свои комментарий, если Вы скачали Видовс Пойнт через торрент бесплатно! Внесите свою лепту в развитие PiratBit!
    Комментировать посты могут только пользователи прошедшие не сложную регистрацию
    Показать сообщения:    

    Видовс Пойнт через торрент
    Скачать бесплатно Видовс Пойнт
    Видовс Пойнт скачать торрент
    Видовс Пойнт смотреть онлайн
    Cкачать фильм Видовс Пойнт бесплатно
    Видовс Пойнт скачать торрент в хорошем качестве
    Видовс Пойнт смотреть онлайн бесплатно в хорошем качестве


    Вы не можете начинать темы
    Вы не можете отвечать на сообщения
    Вы не можете редактировать свои сообщения
    Вы не можете удалять свои сообщения
    Вы не можете голосовать в опросах
    Вы не можете прикреплять файлы к сообщениям
    Вы можете скачивать файлы