Ссылка на приватное зеркало нашего сайта всего за 1$. Внимание количество ограничено!!!

2 сезон

iTunes

1 сезон

1

2 сезон

2 сезон

iTunes

1 сезон

RePack

30

Ultimate

ВАЖНО

ИГРА 18+

pack

RePack

MK11
pack

Забери бонус

RePack

jed

!!Акция!!

Alien_Rage

RePack

fifa19

RePack

Assassins Creed: Odyssey

RePack

NEED FOR SPEED™ PAYBACK

4 сезон

9 сезон

Бесстыжие 9 сезон

Все сериалы

все сериалы на PB.wtf

RePack

FAR CRY 5
  

Завещание Теслы / Final Frequency (Тим Лоури) [2020 г., фантастика, триллер, WEB-DLRip, Дубляж "iTunes"] piratbit.pw

Завещание Теслы через торрент piratbit.pw

Размер: 685 MB | Добавлен: 2 мес. 21 д. назад | Торрент скачан:59 раз
Скачать  

03-09-2020 18:25 Завещание Теслы Скачать торрент  

Завещание Теслы / Final Frequency
Год выпуска: 2020
Страна: США / 8168 Productions, Winter Star Productions
Жанр: фантастика, триллер
Продолжительность: 01:30:43
Перевод: Дубляж (iTunes)
«Последняя частота: это последний звук, который ты когда-либо услышишь.»

Режиссер: Тим Лоури

rating

В ролях: Луис Ферриньо мл., Чарльз Шонесси, Кирби Блисс лэнтон, Ричард Берджи, Люк Гилден, Никки СуХу, Марк Креник, Энн Мари Ховард, Джош Мюррэй, Ben Stobber

Описание: Исследование необычной сейсмической активности в Лос-Анджелесе приводит аспирантку в законспирированную организацию, которая использует разработки Теслы, чтобы управлять не только землетрясениями, но и сознанием людей в своих целях. В поисках пропавшего профессора она пускается в рискованное, полное опасностей приключение.

Качество: WEB-DLRip
Формат: AVI
Видео кодек: DivX
Аудио кодек: MP3
Видео: 640x360 (1.78:1), 24.000 fps, DivX Codec 4.x ~917 kbps avg, 0.17 bit/pixel
Аудио: 48 kHz, MPEG Layer 3, 2 ch, ~128.00 kbps avg
скриншот   скриншот   скриншот   скриншот  

Общее
Полное имя : F:\ФИЛЬМЫ\Завещание Теслы.2020.D.WEB-DLRip.avi
Формат : AVI
Формат/Информация : Audio Video Interleave
Размер файла : 685 Мбайт
Продолжительность : 1 ч. 30 м.
Общий поток : 1 055 Кбит/сек
Программа кодирования : VirtualDubMod 1.5.10.3 | www.virtualdub-fr.org || (build 2550/release)
Библиотека кодирования : VirtualDubMod build 2550/release

Видео
Идентификатор : 0
Формат : MPEG-4 Visual
Профиль формата : Advanced Simple@L5
Настройки формата : BVOP3 / GMC3 / QPel
Параметр BVOP формата : 3
Параметр QPel формата : Да
Параметр GMC формата : 3 точки перехода
Параметр матрицы формата : Default (MPEG)
Идентификатор кодека : DIVX
Идентификатор кодека/Информация : Project Mayo
Идентификатор кодека/Подсказка : DivX 4
Продолжительность : 1 ч. 30 м.
Битрейт : 918 Кбит/сек
Ширина : 640 пикселей
Высота : 360 пикселей
Соотношение сторон : 16:9
Частота кадров : 24,000 кадра/сек
Цветовое пространство : YUV
Субдискретизация насыщенности : 4:2:0
Битовая глубина : 8 бит
Тип развёртки : Прогрессивная
Метод сжатия : С потерями
Бит/(Пиксели*Кадры) : 0.166
Размер потока : 595 Мбайт (87%)
Библиотека кодирования : XviD 1.2.1 (UTC 2008-12-04)

Аудио
Идентификатор : 1
Формат : MPEG Audio
Версия формата : Version 1
Профиль формата : Layer 3
Настройки формата : Joint stereo / MS Stereo
Идентификатор кодека : 55
Идентификатор кодека/Подсказка : MP3
Продолжительность : 1 ч. 30 м.
Вид битрейта : Постоянный
Битрейт : 128 Кбит/сек
Каналы : 2 канала
Частота : 48,0 КГц
Частота кадров : 41,667 кадра/сек (1152 SPF)
Метод сжатия : С потерями
Размер потока : 83,1 Мбайт (12%)
Выравнивание : Соединение по промежуткам
Продолжительность промежутка : 42 мс. (1,00 видеокадр)
Время предзагрузки промежутка : 504 мс.
Библиотека кодирования : LAME3.99r
Настройки программы : -m j -V 4 -q 2 -lowpass 17 -b 128

piratbit.pw



Скачать Завещание Теслы через торрент http://pic1.kartinco.top/images/12/exncj.jpg Скачать фильм Завещание Теслы через торрент бесплантно в хорошем качестве Описание: Исследование необычной сейсмической активности в Лос-Анджелесе приводит аспирантку в законспирированную организацию, которая ... 5 10 1
Торрент: Зарегистрирован [2020-09-03 18:25] · скачан: 59 раз
Статус: √ проверено
Размер: 685 MB
Как cкачать? Как скачать Завещание Теслы через торрент | qTorrent

% Раздел Тема Автор DL S | L
Фильмы (WEB-DL 720p, 1080p) [ 3.53 GB ] Завещание Теслы / Final Frequency [2020 WEB-DL 1080p] bober100 Скачать
3 | 0
Фильмы 2019-2020 [DVDrip, WEB-DLRip, HDrip] (DUB, MVO) [ 1.77 GB ] Завещание Теслы / Final Frequency [2020 WEB-DLRip-AVC ] Lithuania Скачать
4 | 0
Фильмы 2019-2020 [DVDrip, WEB-DLRip, HDrip] (DUB, MVO) [ 751 MB ] Завещание Теслы / Final Frequency [2020 WEB-DLRip-AVC ] от MediaBit Lithuania Скачать
1 | 0
Фильмы 2019-2020 [DVDrip, WEB-DLRip, HDrip] (DUB, MVO) [ 1.46 GB ] Завещание Теслы / Final Frequency [2020 WEB-DLRip] bober100 Скачать
4 | 0

28-11-2019 20:33  

Отключить всю рекламу на сайте

    Дорогой пользователь! Огромная просьба, поблагодарите релизера, оцените раздачу и оставьте свои комментарий, если Вы скачали Завещание Теслы через торрент бесплатно! Внесите свою лепту в развитие PiratBit!
    Комментировать посты могут только пользователи прошедшие не сложную регистрацию
    Показать сообщения:    

    Завещание Теслы через торрент
    Скачать бесплатно Завещание Теслы
    Завещание Теслы скачать торрент
    Завещание Теслы смотреть онлайн
    Cкачать фильм Завещание Теслы бесплатно
    Завещание Теслы скачать торрент в хорошем качестве
    Завещание Теслы смотреть онлайн бесплатно в хорошем качестве


    Вы не можете начинать темы
    Вы не можете отвечать на сообщения
    Вы не можете редактировать свои сообщения
    Вы не можете удалять свои сообщения
    Вы не можете голосовать в опросах
    Вы не можете прикреплять файлы к сообщениям
    Вы можете скачивать файлы