Marvel's Avengers Deluxe Edition (супер цена) 159р. Внимание количество ограничено!!!

2 сезон

iTunes

iTunes

1

iTunes

iTunes

iTunes

WEBRip

iTunes

30
pack

Новость дня

ВАЖНО

!!Акция!!

Alien_RageХит недели

RePack

Horizon Zero Dawn

ИГРА 18+

pack

RePack

jed

!!Акция!!

Alien_Rage

RePack

fifa19

RePack

Assassins Creed: Odyssey

RePack

NEED FOR SPEED™ PAYBACK

4 сезон

9 сезон

Бесстыжие 9 сезон

Все сериалы

все сериалы на PB.wtf

RePack

FAR CRY 5
  

Чужая (Антон Борматов) [2010, драма, криминал, WEBRip 1080p] piratbit.pw

Чужая через торрент piratbit.pw

Раздают: 3 [ 9 KB/s ]
Размер: 8.34 GB | Добавлен: 15 д. назад | Торрент скачан:69 раз
Скачать  

03-09-2020 11:58 Чужая Скачать торрент  

Чужая

Год выхода: 2010
Жанр: драма, криминал
Страна: Россия
Студия: Профит, Красный квадрат
Продолжительность: 01:40:03
Перевод: не требуется
Субтитры: английские (hardsub)

Режиссер: Антон Борматов

В ролях: Наталья Романычева, Кирилл Полухин, Анатолий Отраднов, Евгений Мундум, Александр Голубков, Евгений Ткачук, Александр Большаков, Сергей Жарков, Дмитрий Ратомский, Ольга Бынкова

О фильме:
1990-е. Бандитский Киев. Бригада из четырех бойцов получает задание доставить из Праги девушку по кличке «Чужая». Она - родная сестра арестованного Бабая, чьи показания могут навредить важным людям.



Качество: WEBRip 1080p
Формат: MKV
Видео: AVC, 1920x1080 (16:9), 23.976 fps ~ 11.3 Mbps
Звук: E-AC3, 48 KHz, 6 ch ~ 640 Kbps
Общее

Уникальный идентификатор : 192745643246400013373491236541186574992 (0x910175E9BD7C81399B0F7D2284F20A90)

Полное имя : J:wotAlien.Girl.2010.1080p.AMZN.mkv

Формат : Matroska

Версия формата : Version 4

Размер файла : 8,34 Гбайт

Продолжительность : 1 ч. 40 м.

Режим общего битрейта : Переменный

Общий поток : 11,9 Мбит/сек

Дата кодирования : UTC 2020-09-03 11:17:31

Программа кодирования : mkvmerge v7.7.0 ('Six Voices') 32bit built on Feb 28 2015 23:23:00

Библиотека кодирования : libebml v1.3.1 + libmatroska v1.4.2

Видео

Идентификатор : 1

Формат : AVC

Формат/Информация : Advanced Video Codec

Профиль формата : High@L4

Настройки формата : CABAC / 4 Ref Frames

Параметр CABAC формата : Да

Параметр RefFrames формата : 4 кадра

Идентификатор кодека : V_MPEG4/ISO/AVC

Продолжительность : 1 ч. 40 м.

Вид битрейта : Переменный

Битрейт : 11,3 Мбит/сек

Максимальный битрейт : 15,0 Мбит/сек

Ширина : 1 920 пикселей

Высота : 1 080 пикселей

Соотношение сторон : 16:9

Режим частоты кадров : Постоянный

Частота кадров : 23,976 (24000/1001) кадра/сек

Цветовое пространство : YUV

Субдискретизация насыщенности : 4:2:0

Битовая глубина : 8 бит

Тип развёртки : Прогрессивная

Бит/(Пиксели*Кадры) : 0.227

Размер потока : 7,89 Гбайт (95%)

Библиотека кодирования : x264 core 148 r2623 d5b2374

Настройки программы : cabac=1 / ref=4 / deblock=1:-1:-1 / analyse=0x3:0x133 / me=umh / subme=9 / psy=1 / psy_rd=1.00:0.15 / mixed_ref=1 / me_range=24 / chroma_me=1 / trellis=2 / 8x8dct=1 / cqm=0 / deadzone=21,11 / fast_pskip=1 / chroma_qp_offset=-3 / threads=34 / lookahead_threads=5 / sliced_threads=0 / nr=150 / decimate=1 / interlaced=0 / bluray_compat=0 / constrained_intra=0 / bframes=8 / b_pyramid=2 / b_adapt=2 / b_bias=0 / direct=3 / weightb=1 / open_gop=0 / weightp=2 / keyint=120 / keyint_min=61 / scenecut=0 / intra_refresh=0 / rc_lookahead=120 / rc=crf / mbtree=1 / crf=18.0 / qcomp=0.60 / qpmin=0 / qpmax=69 / qpstep=4 / vbv_maxrate=15000 / vbv_bufsize=31250 / crf_max=0.0 / nal_hrd=vbr / filler=0 / ip_ratio=1.40 / aq=3:1.00

Язык : English

Default : Да

Forced : Нет

Цветовой диапазон : Limited

Основные цвета : BT.709

Характеристики трансфера : BT.709

Коэффициенты матрицы : BT.709

Аудио

Идентификатор : 2

Формат : E-AC-3

Формат/Информация : Enhanced AC-3

Коммерческое название : Dolby Digital Plus

Идентификатор кодека : A_EAC3

Продолжительность : 1 ч. 40 м.

Вид битрейта : Постоянный

Битрейт : 640 Кбит/сек

Каналы : 6 каналов

Channel layout : L R C LFE Ls Rs

Частота : 48,0 КГц

Частота кадров : 31,250 кадров/сек (1536 SPF)

Метод сжатия : С потерями

Размер потока : 458 Мбайт (5%)

Язык : Russian

Service kind : Complete Main

Default : Да

Forced : Нет

Текст

Идентификатор : 3

Формат : UTF-8

Идентификатор кодека : S_TEXT/UTF8

Идентификатор кодека/Информация : UTF-8 Plain Text

Продолжительность : 1 ч. 35 м.

Битрейт : 2 бит/сек

Count of elements : 95

Размер потока : 1,56 Кбайт (0%)

Язык : English

Default : Нет

Forced : Нет
скриншот  скриншот  скриншот  
piratbit.pw



Скачать Чужая через торрент http://i112.fastpic.ru/big/2020/0903/54/b288b9e7064f15eaa88f40aa36c16d54.jpg Скачать фильм Чужая через торрент бесплантно в хорошем качестве О фильме:1990-е. Бандитский Киев. Бригада из четырех бойцов получает задание доставить из Праги девушку по кличке «Чужая». Она - родная ... 9.6 10 7
Торрент: Зарегистрирован [2020-09-03 11:58] · скачан: 69 раз
Статус: T временная
Размер: 8.34 GB
Как cкачать? Как скачать Чужая через торрент | qTorrent

% Раздел Тема Автор DL S | L
Фильмы до 2000 г. [ 1.16 GB ] Чужие среди нас  / They Live [1988 DVDRip] feldeger Скачать
2 | 0
Фильмы [HD 720p, 1080p] (Хороший звук DUB, MVO) [ 7.73 GB ] Чужой против Хищника / AVP: Alien vs. Predator [2004 BDRip ] [Unrated] ACFIORENTINA Скачать
1 | 0
Сборники на DVD и Сиквелы [DVDrip, WEB-DLRip, HDrip, BDRip] [ 13.9 GB ] Чужой 1234 Квадралогия / Alien 1234 1080p BDRIp roman_ke Скачать
3 | 1
Фильмы (Blu-ray, BD-Remux, HDDVD) [ 169.24 GB ] Чужие: Антология / Alien Anthology [1979 1986 1992 1997 BDRemux 1080p] [Director's cut / Special Edition] nikolay27rus Скачать
1 | 0
Наши сериалы [ 19.08 GB ] Чужой район / Сезон: 3 / Серия 1-32 из 32 [2014 SATRip] White Smoke Скачать
1 | 0
Наши фильмы (DVD фильмы) [ 5.06 GB ] Чужая [2010 DVD9 лицензия] Warhed Скачать
1 | 0
Сборники (HD Video) [ 28.71 GB ] Чужой против Хищника: Дилогия / Aliens vs Predator: Dilogy [2004-2007 BDRip 1080p] VintMosina Скачать
1 | 0

28-11-2019 20:33  

Отключить всю рекламу на сайте

03-09-2020 16:44 Чужая Скачать торрент  

Не плохое кинцо!piratbit.pw



06-09-2020 14:31 Чужая Скачать торрент  

рекомендовать не буду, но посмотреть можно.piratbit.pw



    Дорогой пользователь! Огромная просьба, поблагодарите релизера, оцените раздачу и оставьте свои комментарий, если Вы скачали Чужая через торрент бесплатно! Внесите свою лепту в развитие PiratBit!
    Комментировать посты могут только пользователи прошедшие не сложную регистрацию
    Показать сообщения:    

    Чужая через торрент
    Скачать бесплатно Чужая
    Чужая скачать торрент
    Чужая смотреть онлайн
    Cкачать фильм Чужая бесплатно
    Чужая скачать торрент в хорошем качестве
    Чужая смотреть онлайн бесплатно в хорошем качестве


    Вы не можете начинать темы
    Вы не можете отвечать на сообщения
    Вы не можете редактировать свои сообщения
    Вы не можете удалять свои сообщения
    Вы не можете голосовать в опросах
    Вы не можете прикреплять файлы к сообщениям
    Вы можете скачивать файлы