Marvel's Avengers Deluxe Edition (супер цена) 159р. Внимание количество ограничено!!!

2 сезон

iTunes

iTunes

1

iTunes

iTunes

iTunes

WEBRip

iTunes

30
pack

Новость дня

ВАЖНО

!!Акция!!

Alien_RageХит недели

RePack

Horizon Zero Dawn

ИГРА 18+

pack

RePack

jed

!!Акция!!

Alien_Rage

RePack

fifa19

RePack

Assassins Creed: Odyssey

RePack

NEED FOR SPEED™ PAYBACK

4 сезон

9 сезон

Бесстыжие 9 сезон

Все сериалы

все сериалы на PB.wtf

RePack

FAR CRY 5
  

Ключ времени (Алексей Тельнов) [2019, приключения, фэнтези, WEB-DL 1080p] [iTunes] piratbit.pw

Ключ времени через торрент piratbit.pw

Раздают: 10 [ 27 KB/s ]
Размер: 3.01 GB | Добавлен: 18 д. назад | Торрент скачан:108 раз
Скачать  

03-09-2020 11:45 Ключ времени Скачать торрент  

Ключ времени

Год выхода: 2019
Жанр: приключения, фэнтези
Страна: Россия
Продолжительность: 01:32:32
Перевод: не требуется [iTunes]

Режиссер: Алексей Тельнов

В ролях: Ксения Алексеева, Павел Трубинер, Любовь Толкалина, Артем Ткаченко, Марина Казанкова, Оксана Базилевич, Анатолий Кондюбов, Екатерина Байгозина

О фильме:
Бездетные супруги писатель Андрей и художница Ольга удочеряют восьмилетнюю Ксюшу. Директором детского дома, где воспитывалась девочка, оказывается бывшая подруга Андрея Ирена. Она до сих пор страстно любит Андрея и намерена вернуть его любой ценой, пускай для этого придётся разрушить его семейное счастье. Тем временем Андрей сочиняет фантастический роман о темной стороне Петербурга. На страницах его книги город на Неве превращается в фантасмагорический мир, где само время остановилось, а улицы населяют бездушные твари. Внезапно Ксюша попадает в мир «темного Петербурга» из романа Андрея, где встречает таинственного друга Парамона. Героев ждёт немало опасных приключений…



Формат: Mkv
Качество: WEB-DL 1080p
Видео: MPEG-4 AVC, 4526 Кбит/с, 1920x804, 24.000 FPS
Аудио: AAC, 2 ch, 160 Кбит/с
General

Format : Matroska

Format version : Version 4

File size : 3.01 GiB

Duration : 1 h 32 min

Overall bit rate : 4 655 kb/s

Encoded date : UTC 2020-09-02 18:18:41

Writing application : mkvmerge v43.0.0 ('The Quartermaster') 64-bit

Writing library : libebml v1.3.10 + libmatroska v1.5.2

Cover : Yes

Attachments : cover.jpg

Video

ID : 1

Format : AVC

Format/Info : Advanced Video Codec

Format profile : High@L4

Format settings : CABAC / 5 Ref Frames

Format settings, CABAC : Yes

Format settings, Reference : 5 frames

Codec ID : V_MPEG4/ISO/AVC

Duration : 1 h 32 min

Bit rate : 4 526 kb/s

Width : 1 920 pixels

Height : 804 pixels

Display aspect ratio : 2.40:1

Frame rate mode : Constant

Frame rate : 24.000 FPS

Color space : YUV

Chroma subsampling : 4:2:0

Bit depth : 8 bits

Scan type : Progressive

Bits/(Pixel*Frame) : 0.122

Stream size : 2.93 GiB (97%)

Language : English

Default : Yes

Forced : No

Color range : Limited

Color primaries : BT.709

Transfer characteristics : BT.709

Matrix coefficients : BT.709

Audio

ID : 2

Format : AAC LC

Format/Info : Advanced Audio Codec Low Complexity

Codec ID : A_AAC-2

Duration : 1 h 32 min

Bit rate : 125 kb/s

Channel(s) : 2 channels

Channel layout : L R

Sampling rate : 48.0 kHz

Frame rate : 46.875 FPS (1024 SPF)

Compression mode : Lossy

Delay relative to video : -42 ms

Stream size : 82.5 MiB (3%)

Title : [ORIGINAL] AAC 2.0 @ 160 kbps

Language : Russian

Default : Yes

Forced : No

Menu

00:00:00.000 : en:Глава 1

00:06:36.458 : en:Глава 2

00:15:16.833 : en:Глава 3

00:21:05.166 : en:Глава 4

00:30:01.374 : en:Глава 5

00:38:41.707 : en:Глава 6

00:44:24.498 : en:Глава 7

00:51:40.748 : en:Глава 8

00:57:39.956 : en:Глава 9

01:03:56.289 : en:Глава 10

01:09:59.830 : en:Глава 11

01:18:40.955 : en:Глава 12

01:23:41.371 : en:Глава 13
скриншот  скриншот  скриншот  скриншот  
piratbit.pw



Скачать Ключ времени через торрент https://i3.imageban.ru/out/2020/09/03/f66fefef6829042fb9a9d87fedd3e093.png Скачать фильм Ключ времени через торрент бесплантно в хорошем качестве О фильме: Бездетные супруги писатель Андрей и художница Ольга удочеряют восьмилетнюю Ксюшу. Директором детского дома, где воспитывалась ... 10 10 4
Торрент: Зарегистрирован [2020-09-03 11:45] · скачан: 108 раз
Статус: √ проверено
Размер: 3.01 GB
Как cкачать? Как скачать Ключ времени через торрент | qTorrent

% Раздел Тема Автор DL S | L
Фильмы 2017 [DVDrip, WEB-DLRip, HDrip] (DUB, MVO) [ 1.77 GB ] Ловушка времени / Time Trap [2017 BDRip-AVC] MVO [HDRezka Studio] bober100 Скачать
3 | 0
Зарубежные сериалы [ 30.84 GB ] Вне времени / Timeless / Сезон: 2 / Серии: 1-12 из 12 [2018 WEB-DL 1080p] MVO [LostFilm] bober100 Скачать
1 | 0
Зарубежные сериалы [ 6.37 GB ] Вне времени / Timeless / Сезон: 2 / Серии: 1-12 из 12 [2018 WEB-DLRip] MVO [LostFilm] bober100 Скачать
1 | 0
Фильмы 2010 [ 1.51 GB ] Принц Персии: Пески времени / Prince of Persia: The Sands of Time [2010 HDRip-AVC] Dean24 Скачать
1 | 0
T Фильмы [HD 720p, 1080p] (Хороший звук DUB, MVO) [ 4.75 GB ] Ловушка времени / Time Trap [2017 BDRip 720p] - MVO [HDRezka Studio] PROCTOLOG Скачать
1 | 0
T Ultra HD (UHD: 2K, 4K, 8K) — видео сверхвысокой чёткости [ 19.58 GB ] Ловушка времени / Time Trap [2017 UHD WEBRip 2160p] 2xMVO [Синема УС HDRezka Studio] bober100 Скачать
2 | 0
Наши фильмы (HD, WEB-DL 720p, 1080p) [ 3.54 GB ] Владыка времени [2015 WEB-DL 1080p] -Lexx- Скачать
1 | 0

28-11-2019 20:33  

Отключить всю рекламу на сайте

    Дорогой пользователь! Огромная просьба, поблагодарите релизера, оцените раздачу и оставьте свои комментарий, если Вы скачали Ключ времени через торрент бесплатно! Внесите свою лепту в развитие PiratBit!
    Комментировать посты могут только пользователи прошедшие не сложную регистрацию
    Показать сообщения:    

    Ключ времени через торрент
    Скачать бесплатно Ключ времени
    Ключ времени скачать торрент
    Ключ времени смотреть онлайн
    Cкачать фильм Ключ времени бесплатно
    Ключ времени скачать торрент в хорошем качестве
    Ключ времени смотреть онлайн бесплатно в хорошем качестве


    Вы не можете начинать темы
    Вы не можете отвечать на сообщения
    Вы не можете редактировать свои сообщения
    Вы не можете удалять свои сообщения
    Вы не можете голосовать в опросах
    Вы не можете прикреплять файлы к сообщениям
    Вы можете скачивать файлы