Ссылка на приватное зеркало нашего сайта всего за 1$. Внимание количество ограничено!!!

2 сезон

iTunes

1 сезон

1

2 сезон

2 сезон

iTunes

1 сезон

RePack

30

Ultimate

ВАЖНО

ИГРА 18+

pack

RePack

MK11
pack

Забери бонус

RePack

jed

!!Акция!!

Alien_Rage

RePack

fifa19

RePack

Assassins Creed: Odyssey

RePack

NEED FOR SPEED™ PAYBACK

4 сезон

9 сезон

Бесстыжие 9 сезон

Все сериалы

все сериалы на PB.wtf

RePack

FAR CRY 5
  

Завещание Теслы / Final Frequency (Тим Лоури) [2020, Фантастика, триллер, WEB-DLRip-AVC ] [DUB] [iTunes] от MediaBit piratbit.pw

Завещание Теслы через торрент piratbit.pw

Размер: 751 MB | Добавлен: 2 мес. 24 д. назад | Торрент скачан:55 раз
Скачать  

03-09-2020 10:15 Завещание Теслы Скачать торрент  


Завещание Теслы / Final Frequency
Информация о фильме:
Название: Завещание Теслы
Оригинальное название: Final Frequency
Год выхода: 2020
Жанр: Фантастика, триллер
Режиссер: Тим Лоури

В ролях: Луис Ферриньо мл., Чарльз Шонесси, Кирби Блисс Блэнтон, Ричард Бёрджи, Люк Гилден, Никки СуХу, Марк Креник, Энн Мари Ховард, Джош Мюррэй, Бен Стоббер

Описание: Исследование необычной сейсмической активности в Лос-Анджелесе приводит аспирантку в законспирированную организацию, которая использует разработки Теслы, чтобы управлять не только землетрясениями, но и сознанием людей в своих целях. В поисках пропавшего профессора она пускается в рискованное, полное опасностей приключение.

rating

Страна: США
Студия: 8168 Productions, Winter Star Productions
Продолжительность: 01:30:43
Перевод: Дублированный - iTunes



Информация о файле:
Кодек: AVC
Формат: MKV
Качество: WEB-DLRip-AVC
Видео: MPEG-4 AVC, 720x406 (16:9), 1 062 kb/s, 24.000 FPS, 0.151
Аудио RU: AAС-HE, 2 ch, 48 kHz, 96 kbps
Навигация по главам: Есть



General
Unique ID : 134418883825137820003333259821854166404 (0x652022A5F833C405EB78331473330D84)
Complete name : D:uTorrentРипы_от_wolf1245_MediaBitFinal.Frequency.WEBDLRip-AVC_wolf1245_MediaBit.iTunes_745.mkv
Format : Matroska
Format version : Version 4
File size : 751 MiB
Duration : 1 h 30 min
Overall bit rate : 1 158 kb/s
Movie name : Final.Frequency.WEBDLRip-AVC_wolf1245_MediaBit.iTunes
Encoded date : UTC 2020-09-03 10:03:30
Writing application : mkvmerge v49.0.0 ('Sick Of Losing Soulmates') 64-bit
Writing library : libebml v1.4.0 + libmatroska v1.6.1

Video
ID : 1
Format : AVC
Format/Info : Advanced Video Codec
Format profile : High@L4.1
Format settings : CABAC / 11 Ref Frames
Format settings, CABAC : Yes
Format settings, Reference frames : 11 frames
Codec ID : V_MPEG4/ISO/AVC
Duration : 1 h 30 min
Bit rate : 1 062 kb/s
Width : 720 pixels
Height : 406 pixels
Display aspect ratio : 16:9
Frame rate mode : Constant
Frame rate : 24.000 FPS
Color space : YUV
Chroma subsampling : 4:2:0
Bit depth : 8 bits
Scan type : Progressive
Bits/(Pixel*Frame) : 0.151
Stream size : 688 MiB (92%)
Title : wolf1245 & MediaBit
Writing library : x264 core 157 r2958 57baac4
Encoding settings : cabac=1 / ref=11 / deblock=1:-3:-3 / analyse=0x3:0x133 / me=umh / subme=11 / psy=1 / psy_rd=1.00:0.15 / mixed_ref=1 / me_range=48 / chroma_me=1 / trellis=2 / 8x8dct=1 / cqm=0 / deadzone=21,11 / fast_pskip=0 / chroma_qp_offset=-3 / threads=10 / lookahead_threads=2 / sliced_threads=0 / nr=0 / decimate=0 / interlaced=0 / bluray_compat=0 / constrained_intra=0 / bframes=11 / b_pyramid=2 / b_adapt=2 / b_bias=6 / direct=3 / weightb=1 / open_gop=0 / weightp=2 / keyint=240 / keyint_min=24 / scenecut=40 / intra_refresh=0 / rc_lookahead=60 / rc=2pass / mbtree=0 / bitrate=1062 / ratetol=1.0 / qcomp=0.60 / qpmin=0 / qpmax=69 / qpstep=4 / cplxblur=20.0 / qblur=0.5 / vbv_maxrate=50000 / vbv_bufsize=62500 / nal_hrd=none / filler=0 / ip_ratio=1.40 / pb_ratio=1.30 / aq=1:1.00
Language : English
Default : Yes
Forced : No
Color range : Limited
Color primaries : BT.709
Transfer characteristics : BT.709
Matrix coefficients : BT.709

Audio
ID : 2
Format : AAC LC SBR
Format/Info : Advanced Audio Codec Low Complexity with Spectral Band Replication
Commercial name : HE-AAC
Format settings : Implicit
Codec ID : A_AAC-2
Duration : 1 h 30 min
Bit rate : 96.0 kb/s
Channel(s) : 2 channels
Channel layout : L R
Sampling rate : 48.0 kHz
Frame rate : 23.438 FPS (2048 SPF)
Compression mode : Lossy
Stream size : 62.3 MiB (8%)
Title : DUB | iTunes
Language : Russian
Default : Yes
Forced : No

Menu
00:00:00.000 : :Глава 1
00:09:38.958 : :Глава 2
00:17:38.499 : :Глава 3
00:26:05.914 : :Глава 4
00:34:19.039 : :Глава 5
00:40:09.122 : :Глава 6
00:45:12.997 : :Глава 7
00:50:17.788 : :Глава 8
00:56:19.204 : :Глава 9
01:02:23.745 : :Глава 10
01:06:39.328 : :Глава 11
01:11:56.578 : :Глава 12
01:16:51.785 : :Глава 13
01:21:49.992 : :Глава 14
Релиз от: &
piratbit.pw



Скачать Завещание Теслы через торрент https://a.radikal.ru/a12/2009/83/254487f74b7d.png Скачать фильм Завещание Теслы через торрент бесплантно в хорошем качестве Описание: Исследование необычной сейсмической активности в Лос-Анджелесе приводит аспирантку в законспирированную организацию, которая ... 10 10 2
Торрент: Зарегистрирован [2020-09-03 10:15] · скачан: 55 раз
Статус: √ проверено
Размер: 751 MB
Как cкачать? Как скачать Завещание Теслы через торрент | qTorrent

28-11-2019 20:33  

Отключить всю рекламу на сайте

    Дорогой пользователь! Огромная просьба, поблагодарите релизера, оцените раздачу и оставьте свои комментарий, если Вы скачали Завещание Теслы через торрент бесплатно! Внесите свою лепту в развитие PiratBit!
    Комментировать посты могут только пользователи прошедшие не сложную регистрацию
    Показать сообщения:    

    Завещание Теслы через торрент
    Скачать бесплатно Завещание Теслы
    Завещание Теслы скачать торрент
    Завещание Теслы смотреть онлайн
    Cкачать фильм Завещание Теслы бесплатно
    Завещание Теслы скачать торрент в хорошем качестве
    Завещание Теслы смотреть онлайн бесплатно в хорошем качестве


    Вы не можете начинать темы
    Вы не можете отвечать на сообщения
    Вы не можете редактировать свои сообщения
    Вы не можете удалять свои сообщения
    Вы не можете голосовать в опросах
    Вы не можете прикреплять файлы к сообщениям
    Вы можете скачивать файлы