Ссылка на приватное зеркало нашего сайта всего за 1$. Внимание количество ограничено!!!

2 сезон

iTunes

1 сезон

1

2 сезон

2 сезон

iTunes

1 сезон

RePack

30

Ultimate

ВАЖНО

ИГРА 18+

pack

RePack

MK11
pack

Забери бонус

RePack

jed

!!Акция!!

Alien_Rage

RePack

fifa19

RePack

Assassins Creed: Odyssey

RePack

NEED FOR SPEED™ PAYBACK

4 сезон

9 сезон

Бесстыжие 9 сезон

Все сериалы

все сериалы на PB.wtf

RePack

FAR CRY 5
  

#яздесь / #jesuislà (Эрик Лартиго)(Локализованный видеоряд) [2019 г., комедия, WEB-DLRip, Дубляж iTunes] piratbit.pw

#яздесь через торрент piratbit.pw

Раздают: 1 [ 0 KB/s ]
Размер: 706 MB | Добавлен: 2 мес. 28 д. назад | Торрент скачан:20 раз
Скачать  

02-09-2020 18:38 #яздесь Скачать торрент  

#яздесь / #jesuislà
Год выпуска: 2019
Страна: Франция, Бельгия / Rectangle Productions, Gaumont, France 2 Cinéma
Жанр: комедия
Продолжительность: 01:33:46
Перевод: Дубляж (iTunes) (Локализованный видеоряд)

Режиссер: Эрик Лартиго

rating

В ролях: Ален Шаба, Пэ Ду-на, Бланш Гарден, Илиан Бергала, Жюль Саго, Камилль Рутерфорд, Дэльфин Глейз, Лазар Лартиго, Венсан Немет, Натали Лакруа

Описание: Французский шеф-повар Стефан знакомится в сети с корейской художницей Су. Бурная переписка вдохновляет, и он решает поехать в Сеул, но возлюбленная не встречает его в аэропорту. Стефан ждет ее в терминале. Он очаровывает всех и становится интернет-сенсацией, знаменитым «французским любовником». Но что ждет его за дверями аэропорта?

Качество: WEB-DLRip
Формат: AVI
Видео кодек: DivX
Аудио кодек: MP3
Видео: 640x360 (1.78:1), 25 fps, DivX Codec 4.x ~914 kbps avg, 0.16 bit/pixel
Аудио: 48 kHz, MPEG Layer 3, 2 ch, ~128.00 kbps avg
скриншот   скриншот   скриншот   скриншот  

Общее
Полное имя : F:\ФИЛЬМЫ\#яздесь.2019.D.WEB-DLRip.avi
Формат : AVI
Формат/Информация : Audio Video Interleave
Размер файла : 706 Мбайт
Продолжительность : 1 ч. 33 м.
Общий поток : 1 052 Кбит/сек
Программа кодирования : VirtualDubMod 1.5.10.3 | www.virtualdub-fr.org || (build 2550/release)
Библиотека кодирования : VirtualDubMod build 2550/release

Видео
Идентификатор : 0
Формат : MPEG-4 Visual
Профиль формата : Advanced Simple@L5
Настройки формата : BVOP3 / GMC3 / QPel
Параметр BVOP формата : 3
Параметр QPel формата : Да
Параметр GMC формата : 3 точки перехода
Параметр матрицы формата : Default (MPEG)
Идентификатор кодека : DIVX
Идентификатор кодека/Информация : Project Mayo
Идентификатор кодека/Подсказка : DivX 4
Продолжительность : 1 ч. 33 м.
Битрейт : 914 Кбит/сек
Ширина : 640 пикселей
Высота : 360 пикселей
Соотношение сторон : 16:9
Частота кадров : 25,000 кадров/сек
Цветовое пространство : YUV
Субдискретизация насыщенности : 4:2:0
Битовая глубина : 8 бит
Тип развёртки : Прогрессивная
Метод сжатия : С потерями
Бит/(Пиксели*Кадры) : 0.159
Размер потока : 613 Мбайт (87%)
Библиотека кодирования : XviD 1.2.1 (UTC 2008-12-04)

Аудио
Идентификатор : 1
Формат : MPEG Audio
Версия формата : Version 1
Профиль формата : Layer 3
Настройки формата : Joint stereo / MS Stereo
Идентификатор кодека : 55
Идентификатор кодека/Подсказка : MP3
Продолжительность : 1 ч. 33 м.
Вид битрейта : Постоянный
Битрейт : 128 Кбит/сек
Каналы : 2 канала
Частота : 48,0 КГц
Частота кадров : 41,667 кадра/сек (1152 SPF)
Метод сжатия : С потерями
Размер потока : 85,9 Мбайт (12%)
Выравнивание : Соединение по промежуткам
Продолжительность промежутка : 40 мс. (1,00 видеокадр)
Время предзагрузки промежутка : 504 мс.
Библиотека кодирования : LAME3.99r
Настройки программы : -m j -V 4 -q 2 -lowpass 17 -b 128

piratbit.pw



Скачать #яздесь через торрент http://pic1.kartinco.top/images/12/a6i8q.jpg Скачать фильм #яздесь через торрент бесплантно в хорошем качестве Описание: Французский шеф-повар Стефан знакомится в сети с корейской художницей Су. Бурная переписка вдохновляет, и он решает поехать в ... 5 10 1
Торрент: Зарегистрирован [2020-09-02 18:42] · скачан: 20 раз
Статус: √ проверено
Размер: 706 MB
Как cкачать? Как скачать #яздесь через торрент | qTorrent

% Раздел Тема Автор DL S | L
Фильмы (WEB-DL 720p, 1080p) [ 3.65 GB ] #яздесь / #jesuislà [2019 WEB-DL 1080p] [Локализованная версия] bober100 Скачать
2 | 0
Фильмы 2019-2020 [DVDrip, WEB-DLRip, HDrip] (DUB, MVO) [ 1.46 GB ] #яздесь / #jesuislà [2019 WEB-DLRip] [Локализованная версия] bober100 Скачать
10 | 0

28-11-2019 20:33  

Отключить всю рекламу на сайте

    Дорогой пользователь! Огромная просьба, поблагодарите релизера, оцените раздачу и оставьте свои комментарий, если Вы скачали #яздесь через торрент бесплатно! Внесите свою лепту в развитие PiratBit!
    Комментировать посты могут только пользователи прошедшие не сложную регистрацию
    Показать сообщения:    

    #яздесь через торрент
    Скачать бесплатно #яздесь
    #яздесь скачать торрент
    #яздесь смотреть онлайн
    Cкачать фильм #яздесь бесплатно
    #яздесь скачать торрент в хорошем качестве
    #яздесь смотреть онлайн бесплатно в хорошем качестве


    Вы не можете начинать темы
    Вы не можете отвечать на сообщения
    Вы не можете редактировать свои сообщения
    Вы не можете удалять свои сообщения
    Вы не можете голосовать в опросах
    Вы не можете прикреплять файлы к сообщениям
    Вы можете скачивать файлы