Ссылка на приватное зеркало нашего сайта всего за 1$. Внимание количество ограничено!!!

2 сезон

iTunes

1 сезон

1

2 сезон

2 сезон

iTunes

1 сезон

RePack

30

Ultimate

ВАЖНО

ИГРА 18+

pack

RePack

MK11
pack

Забери бонус

RePack

jed

!!Акция!!

Alien_Rage

RePack

fifa19

RePack

Assassins Creed: Odyssey

RePack

NEED FOR SPEED™ PAYBACK

4 сезон

9 сезон

Бесстыжие 9 сезон

Все сериалы

все сериалы на PB.wtf

RePack

FAR CRY 5
  

Одиночка / Solitary (Люк Армстронг) [2020, фантастика, WEB-DLRip-AVC] [MVO] [MUZOBOZ@] от MediaBit piratbit.pw

Одиночка через торрент piratbit.pw

Размер: 750 MB | Добавлен: 2 мес. 21 д. назад | Торрент скачан:93 раза
Скачать  

02-09-2020 09:24 Одиночка Скачать торрент  


Одиночка / Solitary
Информация о фильме:
Название: Одиночка
Оригинальное название: Solitary
Год выхода: 2020
Жанр: фантастика
Режиссер: Люк Армстронг

В ролях: Джонни Санчон, Лотти Толхёрст, Брайан Бовелл, Конни Дженкинс-Грейг, Майкл Кондрон, Раймонд Бетли, Андре Пьер, Майкл Абсалом, Кельвин Хьюлетт, Эллиот Бэлчин
Описание: Айзек Хэвлок — осужденный за убийство молодой человек, насильно отправленный в космос по программе реабилитации заключенных, которые должны создать первую земную колонию. Однако что-то идет не так, и на корабле, который дожидался его на орбите, происходит взрыв, в результате чего Айзек вместе со своей сокамерницей оказывается в ловушке в аварийной капсуле; начинается отчаянная борьба за жизнь.

rating

Страна: Великобритания
Студия: Inspired Pictures
Продолжительность: 01:30:12
Перевод: Любительский (многоголосый, закадровый) - @MUZOBOZ@



Информация о файле:
Кодек: AVC
Формат: MKV
Качество: WEB-DLRip-AVC
Видео: MPEG-4 AVC, 720x300 (2.40:1), 1 080 kb/s, 24.000 fps, 0.208
Аудио RU: AAC-HE, 2 ch, 48 kHz, 96 kbps

General
Unique ID : 83842080264697877863507217022643793479 (0x3F1365B554E0E73F6A8EC1C167F2EE47)
Complete name : D:uTorrentОдиночка - Solitary (2020)_wolf1245 & MediaBit_745.mkv
Format : Matroska
Format version : Version 4
File size : 750 MiB
Duration : 1 h 29 min
Overall bit rate : 1 176 kb/s
Movie name : Одиночка / Solitary (2020)_wolf1245 & MediaBit
Encoded date : UTC 2020-09-02 09:15:02
Writing application : mkvmerge v49.0.0 ('Sick Of Losing Soulmates') 64-bit
Writing library : libebml v1.4.0 + libmatroska v1.6.1

Video
ID : 1
Format : AVC
Format/Info : Advanced Video Codec
Format profile : High@L4.1
Format settings : CABAC / 12 Ref Frames
Format settings, CABAC : Yes
Format settings, Reference frames : 12 frames
Codec ID : V_MPEG4/ISO/AVC
Duration : 1 h 29 min
Bit rate : 1 080 kb/s
Width : 720 pixels
Height : 300 pixels
Display aspect ratio : 2.40:1
Frame rate mode : Constant
Frame rate : 24.000 FPS
Color space : YUV
Chroma subsampling : 4:2:0
Bit depth : 8 bits
Scan type : Progressive
Bits/(Pixel*Frame) : 0.208
Stream size : 688 MiB (92%)
Title : wolf1245 & MediaBit
Writing library : x264 core 157 r2958 57baac4
Encoding settings : cabac=1 / ref=12 / deblock=1:-3:-3 / analyse=0x3:0x133 / me=umh / subme=11 / psy=1 / psy_rd=1.00:0.15 / mixed_ref=1 / me_range=48 / chroma_me=1 / trellis=2 / 8x8dct=1 / cqm=0 / deadzone=21,11 / fast_pskip=0 / chroma_qp_offset=-3 / threads=10 / lookahead_threads=2 / sliced_threads=0 / nr=0 / decimate=0 / interlaced=0 / bluray_compat=0 / constrained_intra=0 / bframes=12 / b_pyramid=2 / b_adapt=2 / b_bias=8 / direct=3 / weightb=1 / open_gop=0 / weightp=2 / keyint=240 / keyint_min=24 / scenecut=40 / intra_refresh=0 / rc_lookahead=60 / rc=2pass / mbtree=0 / bitrate=1080 / ratetol=1.0 / qcomp=0.60 / qpmin=0 / qpmax=69 / qpstep=4 / cplxblur=20.0 / qblur=0.5 / vbv_maxrate=50000 / vbv_bufsize=62500 / nal_hrd=none / filler=0 / ip_ratio=1.40 / pb_ratio=1.30 / aq=1:1.00
Language : English
Default : Yes
Forced : No
Color range : Limited
Color primaries : BT.709
Transfer characteristics : BT.709
Matrix coefficients : BT.709

Audio
ID : 2
Format : AAC LC SBR
Format/Info : Advanced Audio Codec Low Complexity with Spectral Band Replication
Commercial name : HE-AAC
Format settings : Implicit
Codec ID : A_AAC-2
Duration : 1 h 29 min
Bit rate : 96.0 kb/s
Channel(s) : 2 channels
Channel layout : L R
Sampling rate : 48.0 kHz
Frame rate : 23.438 FPS (2048 SPF)
Compression mode : Lossy
Stream size : 61.2 MiB (8%)
Title : MVO [@MUZOBOZ@] MediaBit
Language : Russian
Default : Yes
Forced : No
Релиз от: &
piratbit.pw



Скачать Одиночка через торрент https://b.radikal.ru/b20/2009/35/cf2126d4686b.png Скачать фильм Одиночка через торрент бесплантно в хорошем качестве Описание: Айзек Хэвлок — осужденный за убийство молодой человек, насильно отправленный в космос по программе реабилитации заключенных, ... 10 10 6
Торрент: Зарегистрирован [2020-09-02 09:24] · скачан: 93 раз
Статус: T временная
Размер: 750 MB
Как cкачать? Как скачать Одиночка через торрент | qTorrent

% Раздел Тема Автор DL S | L
T Фильмы 2019-2020 [DVDrip, WEB-DLRip, HDrip] (DUB, MVO) [ 2.05 GB ] Одиночка / Solitary [2020 WEB-DLRip-AVC] [MVO] [MUZOBOZ@] от MediaBit Lithuania Скачать
3 | 0

28-11-2019 20:33  

Отключить всю рекламу на сайте

    Дорогой пользователь! Огромная просьба, поблагодарите релизера, оцените раздачу и оставьте свои комментарий, если Вы скачали Одиночка через торрент бесплатно! Внесите свою лепту в развитие PiratBit!
    Комментировать посты могут только пользователи прошедшие не сложную регистрацию
    Показать сообщения:    

    Одиночка через торрент
    Скачать бесплатно Одиночка
    Одиночка скачать торрент
    Одиночка смотреть онлайн
    Cкачать фильм Одиночка бесплатно
    Одиночка скачать торрент в хорошем качестве
    Одиночка смотреть онлайн бесплатно в хорошем качестве


    Вы не можете начинать темы
    Вы не можете отвечать на сообщения
    Вы не можете редактировать свои сообщения
    Вы не можете удалять свои сообщения
    Вы не можете голосовать в опросах
    Вы не можете прикреплять файлы к сообщениям
    Вы можете скачивать файлы