Ссылка на приватное зеркало нашего сайта всего за 1$. Внимание количество ограничено!!!

2 сезон

iTunes

iTunes

1

iTunes

iTunes

iTunes

WEBRip

iTunes

30
pack

Вам бонус

ВАЖНО

!!Акция!!

Alien_RageХит недели

RePack

Horizon Zero Dawn

ИГРА 18+

pack

RePack

jed

!!Акция!!

Alien_Rage

RePack

fifa19

RePack

Assassins Creed: Odyssey

RePack

NEED FOR SPEED™ PAYBACK

4 сезон

9 сезон

Бесстыжие 9 сезон

Все сериалы

все сериалы на PB.wtf

RePack

FAR CRY 5
  

Ханна / Hanna / Сезон: 2 / Серии 1-8 из 8 (Сара Адина, Андерс Энгстрем, Джон Джонс) [2020, Боевик, драма, WEBRip 1080p] [MVO] (HDRezka Studio) piratbit.pw

Ханна через торрент piratbit.pw

Размер: 19.63 GB | Добавлен: 24 д. назад | Торрент скачан:0 раз
Скачать  

01-09-2020 06:33 Ханна Скачать торрент  

Ханна / Hanna

Год выпуска: 2020
Жанр: Боевик, драма
Страна: США / Amazon Studios, NBC Universal International, Tomorrow Studios, Working Title Television
Продолжительность: 1 x ~ 00:50:00
Перевод: Профессиональный (многоголосый, закадровый) HDRezka Studio
Субтитры: русские (forced)

Режиссер: Сара Адина, Андерс Энгстрем, Джон Джонс

В ролях: Эсме Крид-Майлс, Мирей Инос, Юэль Киннаман, Фелисьен Джаттнер, Халид Абдалла, Кемаал Дин-Эллис, Фалдут Шарма, Бенно Фюрман

О фильме: 18-летняя Ханна всю жизнь прожила в лесах Северной Польши, где её с юных лет тренировал Эрик, прожженный наёмник и старый солдат. Изолированный от цивилизации, он обучил Ханну всем возможным методам выживания. Эрик хотел защитить её от остального мира, но сама Ханна очень хочет узнать тайну своего происхождения.

ratingскриншот  

Качество: WEBRip 1080p
Формат: MKV
Видео: MPEG-4 AVC, ~ 6 719 Kбит/с, 1920x1080, 23.976 fps
Аудио: Русский / AC3 / 2 Ch / 192 kbs
General
Unique ID : 219850008909686022764724747130507396573 (0xA5659250A956AD2116DE4714C81085DD)
Complete name : G:\Hanna.2020.S02.1080p\Hanna.S02E01.WEBRip.1080p.rus.2.0.HDREZKA.STUDIO.mkv
Format : Matroska
Format version : Version 4
File size : 2.43 GiB
Duration : 49 min 20 s
Overall bit rate mode : Variable
Overall bit rate : 7 051 kb/s
Encoded date : UTC 2020-07-07 05:49:54
Writing application : mkvmerge v28.2.0 ('The Awakening') 64-bit
Writing library : libebml v1.3.6 + libmatroska v1.4.9

Video
ID : 1
Format : AVC
Format/Info : Advanced Video Codec
Format profile : High@L4.1
Format settings : CABAC / 1 Ref Frames
Format settings, CABAC : Yes
Format settings, Reference : 1 frame
Codec ID : V_MPEG4/ISO/AVC
Duration : 49 min 20 s
Bit rate mode : Variable
Bit rate : 6 719 kb/s
Maximum bit rate : 2 000 kb/s
Width : 1 920 pixels
Height : 1 080 pixels
Display aspect ratio : 16:9
Frame rate mode : Constant
Frame rate : 23.976 (24000/1001) FPS
Color space : YUV
Chroma subsampling : 4:2:0
Bit depth : 8 bits
Scan type : Progressive
Bits/(Pixel*Frame) : 0.135
Stream size : 2.32 GiB (95%)
Default : Yes
Forced : No
Duration_Source : General_Duration

Audio
ID : 2
Format : AC-3
Format/Info : Audio Coding 3
Commercial name : Dolby Digital
Codec ID : A_AC3
Duration : 49 min 20 s
Bit rate mode : Constant
Bit rate : 192 kb/s
Channel(s) : 2 channels
Channel layout : L R
Sampling rate : 48.0 kHz
Frame rate : 31.250 FPS (1536 SPF)
Compression mode : Lossy
Stream size : 67.8 MiB (3%)
Language : Russian
Service kind : Complete Main
Default : Yes
Forced : No
Duration_Source : General_Duration

piratbit.pw



Скачать Ханна через торрент https://i110.fastpic.ru/big/2019/0211/56/b0f2915e043f9fd56cf13d3429155e56.jpg Скачать фильм Ханна через торрент бесплантно в хорошем качестве О фильме: 18-летняя Ханна всю жизнь прожила в лесах Северной Польши, где её с юных лет тренировал Эрик, прожженный наёмник и старый солдат. ... 10 10 2
Торрент: Зарегистрирован [2020-09-01 06:33] · скачан: 0 раз
Статус: x закрыто
Размер: 19.63 GB
Как cкачать? Как скачать Ханна через торрент | qTorrent

% Раздел Тема Автор DL S | L
Зарубежные сериалы [ 5.94 GB ] Ханна / Hanna / Сезон: 2 / Серии: 1-8 из 8 [2020 WEB-DLRip] MVO [LostFilm] bober100 Скачать
2 | 0
Зарубежные сериалы [ 671 MB ] Ханна / Hanna / Сезон: 2 / Серии: 1- из 8 [2020 WEB-DLRip] MVO [TVShows] bober100 Скачать
1 | 0
Зарубежные сериалы [ 42.05 GB ] Ханна / Hanna / Сезон: 2 / Серии: 1-8 из 8 [2020 UHD WEB-DL 2160p] 2xMVO [IdeaFilm HDRezka Studio] bober100 Скачать
1 | 0
Зарубежные сериалы [ 21.76 GB ] Ханна / Hanna / Сезон: 2 / Серии: 1-8 из 8 [2020 WEB-DL 1080p] MVO [HDRezka Studio] bober100 Скачать
1 | 0
Фильмы без перевода [ 21.24 GB ] Ханна / Hanna / Сезон: 2 / Серии 1-8 из 8 [2020 WEBRip 1080p] [Multi Subs] killermax2013 Скачать
1 | 0
Зарубежные сериалы [ 16.65 GB ] Ханна / Hanna / Сезон: 2 / Серии: 1-8 из 8 [2020 WEBRip 720p] MVO [LostFilm NewStudio] bober100 Скачать
1 | 0
Зарубежные сериалы [ 5.42 GB ] Ханна / Hanna / Сезон: 2 / Серии: 1-8 из 8 [2020 WEBRip] MVO [NewStudio] bober100 Скачать
1 | 0

28-11-2019 20:33  

Отключить всю рекламу на сайте

    Дорогой пользователь! Огромная просьба, поблагодарите релизера, оцените раздачу и оставьте свои комментарий, если Вы скачали Ханна через торрент бесплатно! Внесите свою лепту в развитие PiratBit!
    Комментировать посты могут только пользователи прошедшие не сложную регистрацию
    Показать сообщения:    

    Ханна через торрент
    Скачать бесплатно Ханна
    Ханна скачать торрент
    Ханна смотреть онлайн
    Cкачать фильм Ханна бесплатно
    Ханна скачать торрент в хорошем качестве
    Ханна смотреть онлайн бесплатно в хорошем качестве


    Вы можете начинать темы
    Вы можете отвечать на сообщения
    Вы не можете редактировать свои сообщения
    Вы не можете удалять свои сообщения
    Вы не можете голосовать в опросах
    Вы не можете прикреплять файлы к сообщениям
    Вы можете скачивать файлы