Ссылка на приватное зеркало нашего сайта всего за 1$. Внимание количество ограничено!!!

2 сезон

iTunes

1 сезон

1

2 сезон

2 сезон

iTunes

1 сезон

RePack

30

Ultimate

ВАЖНО

ИГРА 18+

pack

RePack

MK11
pack

Забери бонус

RePack

jed

!!Акция!!

Alien_Rage

RePack

fifa19

RePack

Assassins Creed: Odyssey

RePack

NEED FOR SPEED™ PAYBACK

4 сезон

9 сезон

Бесстыжие 9 сезон

Все сериалы

все сериалы на PB.wtf

RePack

FAR CRY 5
  

Бог грома / Mortal (Андре Овредал) [2020, фэнтези, боевик, приключения, HDRip-AVC] [DUB] [iTunes] от MediaBit piratbit.pw

Бог грома через торрент piratbit.pw

Размер: 752 MB | Добавлен: 2 мес. 26 д. назад | Торрент скачан:76 раз
Скачать  

30-08-2020 20:28 Бог грома Скачать торрент  


Бог грома / Mortal
Информация о фильме:
Название: Бог грома
Оригинальное название: Mortal
Год выхода: 2020
Жанр: Фэнтези, боевик, приключения
Режиссер: Андре Овредал

В ролях: Нат Вулф, Приянка Бозе, Ибен М. Акерлие, Артур Хакалахти, Оддрун Валестранд, Равдип Сингх Баджва, Аня Нова, Суннива Линд Ховерстад, Пер Фриш, Нико Русаков

Описание: Простой американский парень Эрик неожиданно обнаруживает в себе силы языческих богов: он может управлять стихией, обращать предметы в пепел, видеть странные видения и путешествовать между мирами. Что произойдёт, когда мир узнает о его новых возможностях, удастся ли парню совладать с силой богов, или он станет угрозой человечеству?

rating

Страна: Норвегия, США, Великобритания
Студия: 42, Automatik Entertainment, Eldorado Film
Продолжительность: 01:40:20
Перевод: Дублированный - iTunes



Информация о файле:
Кодек: AVC
Формат: MKV
Качество: HDRip-AVC
Видео: MPEG-4 AVC, 720x302 (2.40:1), 25.000 fps, 950 kbps, 0.175
Аудио RU: AAС, ch, 48 kHz, 96 kbps
Субтитры: Русские (Full, SDH), английские
Навигация по главам: Есть



General
Unique ID : 209363684222861866389754046663853272463 (0x9D81FA974DA188D64DD570F3383EED8F)
Complete name : D:uTorrentMortal 2020_wolf1245 & MediaBit.mkv
Format : Matroska
Format version : Version 4
File size : 752 MiB
Duration : 1 h 40 min
Overall bit rate : 1 047 kb/s
Movie name : Mortal 2020_wolf1245 & MediaBit
Encoded date : UTC 2020-08-30 20:12:03
Writing application : mkvmerge v49.0.0 ('Sick Of Losing Soulmates') 64-bit
Writing library : libebml v1.4.0 + libmatroska v1.6.1
Cover : Yes
Attachments : Cover.jpg

Video
ID : 1
Format : AVC
Format/Info : Advanced Video Codec
Format profile : High@L4.1
Format settings : CABAC / 11 Ref Frames
Format settings, CABAC : Yes
Format settings, Reference frames : 11 frames
Codec ID : V_MPEG4/ISO/AVC
Duration : 1 h 40 min
Bit rate : 950 kb/s
Width : 720 pixels
Height : 302 pixels
Display aspect ratio : 2.40:1
Frame rate mode : Constant
Frame rate : 25.000 FPS
Color space : YUV
Chroma subsampling : 4:2:0
Bit depth : 8 bits
Scan type : Progressive
Bits/(Pixel*Frame) : 0.175
Stream size : 681 MiB (91%)
Title : wolf1245 & MediaBit
Writing library : x264 core 157 r2958 57baac4
Encoding settings : cabac=1 / ref=11 / deblock=1:-3:-3 / analyse=0x3:0x133 / me=umh / subme=11 / psy=1 / psy_rd=1.00:0.15 / mixed_ref=1 / me_range=48 / chroma_me=1 / trellis=2 / 8x8dct=1 / cqm=0 / deadzone=21,11 / fast_pskip=0 / chroma_qp_offset=-3 / threads=10 / lookahead_threads=2 / sliced_threads=0 / nr=0 / decimate=0 / interlaced=0 / bluray_compat=0 / constrained_intra=0 / bframes=11 / b_pyramid=2 / b_adapt=2 / b_bias=11 / direct=3 / weightb=1 / open_gop=0 / weightp=2 / keyint=250 / keyint_min=25 / scenecut=40 / intra_refresh=0 / rc_lookahead=60 / rc=2pass / mbtree=0 / bitrate=950 / ratetol=1.0 / qcomp=0.60 / qpmin=0 / qpmax=69 / qpstep=4 / cplxblur=20.0 / qblur=0.5 / vbv_maxrate=50000 / vbv_bufsize=62500 / nal_hrd=none / filler=0 / ip_ratio=1.40 / pb_ratio=1.30 / aq=1:1.00
Language : English
Default : Yes
Forced : No

Audio
ID : 2
Format : AAC LC SBR
Format/Info : Advanced Audio Codec Low Complexity with Spectral Band Replication
Commercial name : HE-AAC
Format settings : Implicit
Codec ID : A_AAC-2
Duration : 1 h 40 min
Bit rate : 96.0 kb/s
Channel(s) : 2 channels
Channel layout : L R
Sampling rate : 48.0 kHz
Frame rate : 23.438 FPS (2048 SPF)
Compression mode : Lossy
Stream size : 68.9 MiB (9%)
Title : DUB | iTunes
Language : Russian
Default : Yes
Forced : No

Text #1
ID : 3
Format : UTF-8
Codec ID : S_TEXT/UTF8
Codec ID/Info : UTF-8 Plain Text
Duration : 1 h 32 min
Bit rate : 50 b/s
Count of elements : 540
Stream size : 34.1 KiB (0%)
Title : Full
Language : Russian
Default : Yes
Forced : No

Text #2
ID : 4
Format : UTF-8
Codec ID : S_TEXT/UTF8
Codec ID/Info : UTF-8 Plain Text
Duration : 1 h 25 min
Bit rate : 30 b/s
Count of elements : 528
Stream size : 18.8 KiB (0%)
Language : English
Default : No
Forced : No

Menu
00:00:00.000 : :00:00:00.000
00:11:06.360 : :00:11:06.360
00:27:39.200 : :00:27:39.200
00:41:14.200 : :00:41:14.200
00:49:10.280 : :00:49:10.280
01:06:59.440 : :01:06:59.440
01:16:53.200 : :01:16:53.200
01:33:44.320 : :01:33:44.320
Релиз от: &
piratbit.pw



Скачать Бог грома через торрент https://d.radikal.ru/d00/2006/a4/184153003047.png Скачать фильм Бог грома через торрент бесплантно в хорошем качестве Описание: Простой американский парень Эрик неожиданно обнаруживает в себе силы языческих богов: он может управлять стихией, обращать ... 10 10 6
Торрент: Зарегистрирован [2020-08-30 20:28] · скачан: 76 раз
Статус: √ проверено
Размер: 752 MB
Как cкачать? Как скачать Бог грома через торрент | qTorrent

% Раздел Тема Автор DL S | L
Фильмы 2019-2020 [DVDrip, WEB-DLRip, HDrip] (DUB, MVO) [ 1.68 GB ] Бог грома / Mortal [2020 BDRip-AVC] от MediaBit Lithuania Скачать
4 | 0

28-11-2019 20:33  

Отключить всю рекламу на сайте

    Дорогой пользователь! Огромная просьба, поблагодарите релизера, оцените раздачу и оставьте свои комментарий, если Вы скачали Бог грома через торрент бесплатно! Внесите свою лепту в развитие PiratBit!
    Комментировать посты могут только пользователи прошедшие не сложную регистрацию
    Показать сообщения:    

    Бог грома через торрент
    Скачать бесплатно Бог грома
    Бог грома скачать торрент
    Бог грома смотреть онлайн
    Cкачать фильм Бог грома бесплатно
    Бог грома скачать торрент в хорошем качестве
    Бог грома смотреть онлайн бесплатно в хорошем качестве


    Вы не можете начинать темы
    Вы не можете отвечать на сообщения
    Вы не можете редактировать свои сообщения
    Вы не можете удалять свои сообщения
    Вы не можете голосовать в опросах
    Вы не можете прикреплять файлы к сообщениям
    Вы можете скачивать файлы