Ссылка на приватное зеркало нашего сайта всего за 1$. Внимание количество ограничено!!!

2 сезон

iTunes

1 сезон

1

2 сезон

2 сезон

iTunes

1 сезон

RePack

30

Новинка

ВАЖНО

ИГРА 18+

pack

RePack

MK11
pack

Забери бонус

RePack

jed

!!Акция!!

Alien_Rage

RePack

fifa19

RePack

Assassins Creed: Odyssey

RePack

NEED FOR SPEED™ PAYBACK

4 сезон

9 сезон

Бесстыжие 9 сезон

Все сериалы

все сериалы на PB.wtf

RePack

FAR CRY 5
  

Залив тишины / The Bay of Silence (Паула ван дер Уст) [2020, Триллер, драма, WEB-DLRip-AVC] [DUB] [iTunes] от MediaBit piratbit.pw

Залив тишины через торрент piratbit.pw

Раздают: 1 [ 0 KB/s ]
Размер: 1.83 GB | Добавлен: 2 мес. 25 д. назад | Торрент скачан:77 раз
Скачать  

30-08-2020 12:07 Залив тишины Скачать торрент  


Залив тишины / The Bay of Silence
Информация о фильме:

Название: Залив тишины
Оригинальное название: The Bay of Silence
Год выхода: 2019
Жанр: Триллер
Режиссер: Паула ван дер Уст

В ролях: Клас Банг, Ольга Куриленко, Брайан Кокс (I), Ассаад Буаб, Элис Крайдж, Кэролайн Гудолл, Шалиша Джеймс-Дэвис, Литиана Биутанасева, Лилибет Биутанасева, Дункан Дафф

Описание: Розалинд и Уилл готовятся к рождению ребенка, но несчастный случай меняет их идеальную семейную жизнь. Теперь мужу придется узнать все о прошлом жены, которое она так тщательно скрывала. В один день Розалинд внезапно исчезает вместе с детьми. Уилл отправляется на поиски и находит ее в каком-то заброшенном доме в Нормандии. Однако счастливое воссоединение оборачивается очередным кошмаром.

rating

Страна: Великобритания
Студия: Tbos Film, Imperative Entertainment, Levitate Film
Продолжительность: 01:33:28
Перевод: Дублированный - iTunes



Информация о файле:
Кодек: AVC
Формат: MKV
Качество: WEB-DLRip-AVC
Видео: MPEG-4 AVC, 1024x428 (2.40:1), 2 035 kb/s, 23.976 FPS, 0.194
Аудио RU: AC3, 6 ch, 48 kHz, 384 kbps
Аудио EN: AC3, 6 ch, 48 kHz, 384 kbps
Субтитры: Русские (Full), английские
Навигация по главам: Нет



General
Unique ID : 195445223330973203069143203728498318530 (0x9309617CC495B5C8B4D1A7ABAB7B5CC2)
Complete name : D:\uTorrent\Рипы_от_wolf1245_MediaBit\The.Bay.of.Silence.2020_wolf1245_MediaBit.mkv
Format : Matroska
Format version : Version 4
File size : 1.83 GiB
Duration : 1 h 33 min
Overall bit rate : 2 805 kb/s
Movie name : The.Bay.of.Silence.2020_wolf1245_MediaBit
Encoded date : UTC 2020-08-30 11:39:56
Writing application : mkvmerge v49.0.0 ('Sick Of Losing Soulmates') 64-bit
Writing library : libebml v1.4.0 + libmatroska v1.6.1
Cover : Yes
Attachments : Covers.jpg

Video
ID : 1
Format : AVC
Format/Info : Advanced Video Codec
Format profile : High@L4.1
Format settings : CABAC / 11 Ref Frames
Format settings, CABAC : Yes
Format settings, Reference frames : 11 frames
Codec ID : V_MPEG4/ISO/AVC
Duration : 1 h 33 min
Bit rate : 2 035 kb/s
Width : 1 024 pixels
Height : 428 pixels
Display aspect ratio : 2.40:1
Frame rate mode : Constant
Frame rate : 23.976 (24000/1001) FPS
Color space : YUV
Chroma subsampling : 4:2:0
Bit depth : 8 bits
Scan type : Progressive
Bits/(Pixel*Frame) : 0.194
Stream size : 1.33 GiB (73%)
Title : wolf1245 & MediaBit
Writing library : x264 core 157 r2958 57baac4
Encoding settings : cabac=1 / ref=11 / deblock=1:-3:-3 / analyse=0x3:0x133 / me=umh / subme=11 / psy=1 / psy_rd=1.00:0.15 / mixed_ref=1 / me_range=48 / chroma_me=1 / trellis=2 / 8x8dct=1 / cqm=0 / deadzone=21,11 / fast_pskip=0 / chroma_qp_offset=-3 / threads=10 / lookahead_threads=2 / sliced_threads=0 / nr=0 / decimate=0 / interlaced=0 / bluray_compat=0 / constrained_intra=0 / bframes=10 / b_pyramid=2 / b_adapt=2 / b_bias=4 / direct=3 / weightb=1 / open_gop=0 / weightp=2 / keyint=240 / keyint_min=24 / scenecut=40 / intra_refresh=0 / rc_lookahead=60 / rc=2pass / mbtree=0 / bitrate=2035 / ratetol=1.0 / qcomp=0.60 / qpmin=0 / qpmax=69 / qpstep=4 / cplxblur=20.0 / qblur=0.5 / vbv_maxrate=50000 / vbv_bufsize=62500 / nal_hrd=none / filler=0 / ip_ratio=1.40 / pb_ratio=1.30 / aq=1:1.00
Language : English
Default : Yes
Forced : No
Color range : Limited
Color primaries : BT.709
Transfer characteristics : BT.709
Matrix coefficients : BT.709

Audio #1
ID : 2
Format : AC-3
Format/Info : Audio Coding 3
Commercial name : Dolby Digital
Codec ID : A_AC3
Duration : 1 h 33 min
Bit rate mode : Constant
Bit rate : 384 kb/s
Channel(s) : 6 channels
Channel layout : L R C LFE Ls Rs
Sampling rate : 48.0 kHz
Frame rate : 31.250 FPS (1536 SPF)
Compression mode : Lossy
Stream size : 257 MiB (14%)
Title : DUB | iTunes
Language : Russian
Service kind : Complete Main
Default : Yes
Forced : No

Audio #2
ID : 3
Format : AC-3
Format/Info : Audio Coding 3
Commercial name : Dolby Digital
Codec ID : A_AC3
Duration : 1 h 33 min
Bit rate mode : Constant
Bit rate : 384 kb/s
Channel(s) : 6 channels
Channel layout : L R C LFE Ls Rs
Sampling rate : 48.0 kHz
Frame rate : 31.250 FPS (1536 SPF)
Compression mode : Lossy
Stream size : 257 MiB (14%)
Title : Original
Language : English
Service kind : Complete Main
Default : No
Forced : No

Text #1
ID : 4
Format : UTF-8
Codec ID : S_TEXT/UTF8
Codec ID/Info : UTF-8 Plain Text
Duration : 1 h 23 min
Bit rate : 66 b/s
Count of elements : 904
Stream size : 40.8 KiB (0%)
Title : Full
Language : Russian
Default : Yes
Forced : No

Text #2
ID : 5
Format : UTF-8
Codec ID : S_TEXT/UTF8
Codec ID/Info : UTF-8 Plain Text
Duration : 1 h 23 min
Bit rate : 37 b/s
Count of elements : 904
Stream size : 22.8 KiB (0%)
Language : English
Default : No
Forced : No
Релиз от: &
piratbit.pw



Скачать Залив тишины через торрент http://a.radikal.ru/a38/2008/e4/60a758c406d2.jpg Скачать фильм Залив тишины через торрент бесплантно в хорошем качестве Описание: Розалинд и Уилл готовятся к рождению ребенка, но несчастный случай меняет их идеальную семейную жизнь. Теперь мужу придется ... 10 10 4
Торрент: Зарегистрирован [2020-08-30 12:07] · скачан: 77 раз
Статус: √ проверено
Размер: 1.83 GB
Как cкачать? Как скачать Залив тишины через торрент | qTorrent

28-11-2019 20:33  

Отключить всю рекламу на сайте

    Дорогой пользователь! Огромная просьба, поблагодарите релизера, оцените раздачу и оставьте свои комментарий, если Вы скачали Залив тишины через торрент бесплатно! Внесите свою лепту в развитие PiratBit!
    Комментировать посты могут только пользователи прошедшие не сложную регистрацию
    Показать сообщения:    

    Залив тишины через торрент
    Скачать бесплатно Залив тишины
    Залив тишины скачать торрент
    Залив тишины смотреть онлайн
    Cкачать фильм Залив тишины бесплатно
    Залив тишины скачать торрент в хорошем качестве
    Залив тишины смотреть онлайн бесплатно в хорошем качестве


    Вы не можете начинать темы
    Вы не можете отвечать на сообщения
    Вы не можете редактировать свои сообщения
    Вы не можете удалять свои сообщения
    Вы не можете голосовать в опросах
    Вы не можете прикреплять файлы к сообщениям
    Вы можете скачивать файлы