Ссылка на приватное зеркало нашего сайта всего за 1$. Внимание количество ограничено!!!

2 сезон

iTunes

1 сезон

1

2 сезон

2 сезон

iTunes

1 сезон

RePack

30

Новинка

ВАЖНО

ИГРА 18+

pack

RePack

MK11
pack

Забери бонус

RePack

jed

!!Акция!!

Alien_Rage

RePack

fifa19

RePack

Assassins Creed: Odyssey

RePack

NEED FOR SPEED™ PAYBACK

4 сезон

9 сезон

Бесстыжие 9 сезон

Все сериалы

все сериалы на PB.wtf

RePack

FAR CRY 5
  

В ожидании варваров / Waiting for the Barbarians (Сиро Герра) [2019, Драма, BDRip-AVC] [DUB] [iTunes] от wolf1245 & MediaBit piratbit.pw

В ожидании варваров через торрент piratbit.pw

Раздают: 4 [ 0 KB/s ]
Размер: 2.41 GB | Добавлен: 3 мес. назад | Торрент скачан:135 раз
Скачать  

30-08-2020 08:38 В ожидании варваров Скачать торрент  


В ожидании варваров / Waiting for the Barbarians
Информация о фильме:
Название: В ожидании варваров
Оригинальное название: Waiting for the Barbarians
Год выхода: 2019
Жанр: Драма
Режиссер: Сиро Герра

В ролях: Марк Райлэнс, Джонни Депп, Роберт Паттинсон, Гана Баярсайкан, Грета Скакки, Давид Денсик, Сэм Рид, Гарри Меллинг, Билл Милнер, Далхсурен Гурсэд

Описание: В отдаленный южный город на границе неназванной Империи приезжает суровый полковник Джолл вместе со своими солдатами. Ему поручено пресечь малейшие попытки восстания коренных жителей пустыни, именуемых «варварами». Полковник берется за дело основательно и жестоко. Расследуя смутные слухи о готовящемся бунте, он общается с плененными туземцами только на языке насилия. Свидетелем пыток и расправ становится местный чиновник – обходительный и добродушный магистрат города, не видящий в коренном населении никакой угрозы. Сблизившись с одной из замученных пленниц, магистрат находит в себе силы выступить против имперской карательной машины...

rating

Страна: США, Италия
Студия: Iervolino Entertainment, Ithaca Pictures
Продолжительность: 01:54:01
Перевод: Дублированный - iTunes



Информация о файле:
Кодек: AVC
Формат: MKV
Качество: BDRip-AVC
Видео: MPEG-4 AVC, 1024x426 (2,40:1), 2010 Кбит/сек, 23,976 кадра/сек, 0.192
Аудио RU: AC3, 6 ch, 48 kHz, 384 kbps | iTunes
Аудио EN: AC3, 6 ch, 48 kHz, 640 Кбит/сек
Субтитры: Русские (Forced, full), английские
Навигация по главам: Есть

|


General
Unique ID : 108628139862800900219435777674406213645 (0x51B904CBEA0F9CBF245739F45913380D)
Complete name : D:uTorrentWaiting for the Barbarians 2019_wolf1245_MediaBit.mkv
Format : Matroska
Format version : Version 4
File size : 2.41 GiB
Duration : 1 h 53 min
Overall bit rate : 3 029 kb/s
Movie name : Waiting for the Barbarians 2019_wolf1245_MediaBit
Encoded date : UTC 2020-08-30 08:22:52
Writing application : mkvmerge v49.0.0 ('Sick Of Losing Soulmates') 64-bit
Writing library : libebml v1.4.0 + libmatroska v1.6.1
Cover : Yes
Attachments : Cover.jpg

Video
ID : 1
Format : AVC
Format/Info : Advanced Video Codec
Format profile : High@L4.1
Format settings : CABAC / 11 Ref Frames
Format settings, CABAC : Yes
Format settings, Reference frames : 11 frames
Codec ID : V_MPEG4/ISO/AVC
Duration : 1 h 53 min
Bit rate : 2 010 kb/s
Width : 1 024 pixels
Height : 426 pixels
Display aspect ratio : 2.40:1
Frame rate mode : Constant
Frame rate : 23.976 (24000/1001) FPS
Color space : YUV
Chroma subsampling : 4:2:0
Bit depth : 8 bits
Scan type : Progressive
Bits/(Pixel*Frame) : 0.192
Stream size : 1.59 GiB (66%)
Title : wolf1245_MediaBit
Writing library : x264 core 157 r2958 57baac4
Encoding settings : cabac=1 / ref=11 / deblock=1:-3:-3 / analyse=0x3:0x133 / me=umh / subme=11 / psy=1 / psy_rd=1.00:0.15 / mixed_ref=1 / me_range=48 / chroma_me=1 / trellis=2 / 8x8dct=1 / cqm=0 / deadzone=21,11 / fast_pskip=0 / chroma_qp_offset=-3 / threads=10 / lookahead_threads=2 / sliced_threads=0 / nr=0 / decimate=0 / interlaced=0 / bluray_compat=0 / constrained_intra=0 / bframes=10 / b_pyramid=2 / b_adapt=2 / b_bias=4 / direct=3 / weightb=1 / open_gop=0 / weightp=2 / keyint=240 / keyint_min=24 / scenecut=40 / intra_refresh=0 / rc_lookahead=60 / rc=2pass / mbtree=0 / bitrate=2010 / ratetol=1.0 / qcomp=0.60 / qpmin=0 / qpmax=69 / qpstep=4 / cplxblur=20.0 / qblur=0.5 / vbv_maxrate=50000 / vbv_bufsize=62500 / nal_hrd=none / filler=0 / ip_ratio=1.40 / pb_ratio=1.30 / aq=1:1.00
Language : English
Default : Yes
Forced : No

Audio #1
ID : 2
Format : AC-3
Format/Info : Audio Coding 3
Commercial name : Dolby Digital
Codec ID : A_AC3
Duration : 1 h 53 min
Bit rate mode : Constant
Bit rate : 384 kb/s
Channel(s) : 6 channels
Channel layout : L R C LFE Ls Rs
Sampling rate : 48.0 kHz
Frame rate : 31.250 FPS (1536 SPF)
Compression mode : Lossy
Stream size : 312 MiB (13%)
Title : DUB | iTunes
Language : Russian
Service kind : Complete Main
Default : Yes
Forced : No

Audio #2
ID : 6
Format : AC-3
Format/Info : Audio Coding 3
Commercial name : Dolby Digital
Codec ID : A_AC3
Duration : 1 h 53 min
Bit rate mode : Constant
Bit rate : 640 kb/s
Channel(s) : 6 channels
Channel layout : L R C LFE Ls Rs
Sampling rate : 48.0 kHz
Frame rate : 31.250 FPS (1536 SPF)
Compression mode : Lossy
Stream size : 520 MiB (21%)
Title : Original
Language : English
Service kind : Complete Main
Default : No
Forced : No

Text #1
ID : 3
Format : UTF-8
Codec ID : S_TEXT/UTF8
Codec ID/Info : UTF-8 Plain Text
Duration : 1 h 32 min
Bit rate : 0 b/s
Count of elements : 4
Stream size : 111 Bytes (0%)
Title : Forced
Language : Russian
Default : Yes
Forced : Yes

Text #2
ID : 4
Format : UTF-8
Codec ID : S_TEXT/UTF8
Codec ID/Info : UTF-8 Plain Text
Duration : 1 h 48 min
Bit rate : 47 b/s
Count of elements : 856
Stream size : 37.8 KiB (0%)
Title : Full
Language : Russian
Default : No
Forced : No

Text #3
ID : 5
Format : UTF-8
Codec ID : S_TEXT/UTF8
Codec ID/Info : UTF-8 Plain Text
Duration : 1 h 52 min
Bit rate : 31 b/s
Count of elements : 1037
Stream size : 25.6 KiB (0%)
Language : English
Default : No
Forced : No

Menu
00:00:00.000 : :00:00:00.000
00:08:23.670 : :00:08:23.670
00:17:46.440 : :00:17:46.440
00:29:12.000 : :00:29:12.000
00:38:37.440 : :00:38:37.440
00:46:11.769 : :00:46:11.769
00:57:13.221 : :00:57:13.221
01:04:04.299 : :01:04:04.299
01:13:22.982 : :01:13:22.982
01:19:39.942 : :01:19:39.942
01:30:58.620 : :01:30:58.620
01:40:57.051 : :01:40:57.051
Рип от: &
piratbit.pw



Скачать В ожидании варваров через торрент https://a.radikal.ru/a19/2008/53/22469a1eaba3.jpg Скачать фильм В ожидании варваров через торрент бесплантно в хорошем качестве Описание: В отдаленный южный город на границе неназванной Империи приезжает суровый полковник Джолл вместе со своими солдатами. Ему ... 10 10 3
Торрент: Зарегистрирован [2020-08-30 08:38] · скачан: 135 раз
Статус: √ проверено
Размер: 2.41 GB
Как cкачать? Как скачать В ожидании варваров через торрент | qTorrent

28-11-2019 20:33  

Отключить всю рекламу на сайте

    Дорогой пользователь! Огромная просьба, поблагодарите релизера, оцените раздачу и оставьте свои комментарий, если Вы скачали В ожидании варваров через торрент бесплатно! Внесите свою лепту в развитие PiratBit!
    Комментировать посты могут только пользователи прошедшие не сложную регистрацию
    Показать сообщения:    

    В ожидании варваров через торрент
    Скачать бесплатно В ожидании варваров
    В ожидании варваров скачать торрент
    В ожидании варваров смотреть онлайн
    Cкачать фильм В ожидании варваров бесплатно
    В ожидании варваров скачать торрент в хорошем качестве
    В ожидании варваров смотреть онлайн бесплатно в хорошем качестве


    Вы не можете начинать темы
    Вы не можете отвечать на сообщения
    Вы не можете редактировать свои сообщения
    Вы не можете удалять свои сообщения
    Вы не можете голосовать в опросах
    Вы не можете прикреплять файлы к сообщениям
    Вы можете скачивать файлы